Comedy

The Clique 2008 iTALiAN STV DVDRip XviD Rebels [Ultima Frontiera]

  • Download 5x Faster
  • Download torrent
  • Direct Download
  • Rate this torrent +  |  -
The Clique 2008 iTALiAN STV DVDRip XviD Rebels [Ultima Frontiera]

Free and Direct Download with Usenet.nl 300GB+ free


Torrent info

Name:The Clique 2008 iTALiAN STV DVDRip XviD Rebels [Ultima Frontiera]

Total Size: 698.93 MB

Magnet: Magnet Link

Seeds: 0

Leechers: 0

Stream: Watch Online @ Movie4u

Last Updated: 2012-07-14 09:39:03 (Update Now)

Torrent added: 2009-08-28 16:34:35





Torrent Files List


The.Clique.2008.iTALiAN.STV.DVDRip.XviD-Rebels.avi (Size: 698.93 MB) (Files: 1)

 The.Clique.2008.iTALiAN.STV.DVDRip.XviD-Rebels.avi

698.93 MB
 

Announce URL:

Torrent description

Titolo: The Clique
Produttore: Warner Home Video
Genere: Commedia
Anno di produzione: 2008
Durata: 84




Samantha Boscarino Sophie Anna Everhard Ellen Marlow Elizabeth McLaughlin Bridgit Mendler Keli Price




Massie Block, con i suoi lucenti capelli castani, i denti bianchi lucidati al laser e un guardaroba strepitoso, domina la scena sociale dell’esclusiva Octavian Country Day, la scuola privata femminile dei ricchi sobborghi di Westchester County, nello stato di New York...


General
Complete name : The.Clique.2008.iTALiAN.STV.DVDRip.XviD-Rebels.avi
Format : AVI
Format/Info : Audio Video Interleave
File size : 699 MiB
Duration : 1h 23mn
Overall bit rate : 1 167 Kbps
Writing application : VirtualDubMod 1.5.10.2 (build 2540/release)
Writing library : VirtualDubMod build 2540/release

Video
ID : 0
Format : MPEG-4 Visual
Format profile : [email protected]
Format settings, BVOP : Yes
Format settings, QPel : No
Format settings, GMC : No warppoints
Format settings, Matrix : Default (H.263)
Codec ID : XVID
Codec ID/Hint : XviD
Duration : 1h 23mn
Bit rate : 773 Kbps
Width : 624 pixels
Height : 352 pixels
Display aspect ratio : 16/9
Frame rate : 25.000 fps
Resolution : 24 bits
Colorimetry : 4:2:0
Scan type : Progressive
Bits/(Pixel*Frame) : 0.141
Stream size : 463 MiB (66%)
Writing library : XviD 1.2.1 (UTC 2008-12-04)

Audio
ID : 1
Format : AC-3
Format/Info : Audio Coding 3
Codec ID : 2000
Duration : 1h 23mn
Bit rate mode : Constant
Bit rate : 384 Kbps
Channel(s) : 6 channels
Channel positions : Front: L C R, Surround: L R, LFE
Sampling rate : 48.0 KHz
Stream size : 230 MiB (33%)
Alignment : Split accross interleaves
Interleave, duration : 40 ms (1.00 video frame)
Interleave, preload duration : 500 ms

related torrents

Torrent name

health leech seeds Size
 

comments (0)

Main Menu