Movies - Other

Bank Job 2008 German DVDRip XviD

  • Download 5x Faster
  • Download torrent
  • Direct Download
  • Rate this torrent +  |  -
Bank Job 2008 German DVDRip XviD

Anonymous and Direct Download 300GB+ free


Torrent info

Name:Bank Job 2008 German DVDRip XviD

Total Size: 699.98 MB

Magnet: Magnet Link

Seeds: 0

Leechers: 0

Stream: Watch Online @ Movie4u

Last Updated: 2010-07-13 05:53:02 (Update Now)

Torrent added: 2009-08-28 16:27:56




Torrent Files List


Bank.Job.German.DVDRip.XviD.avi (Size: 699.98 MB) (Files: 2)

 Bank.Job.German.DVDRip.XviD.avi

699.98 MB

 nfo.nfo

2.08 KB
 

Announce URL: http://speed-dream.ath.cx//announce.php

Torrent description

General
Vollständiger Name : Bank.Job.German.DVDRip.XviD.avi
Format : AVI
Format/Info : Audio Video Interleave
Dateigre : 700 MiB
Duration : 1h 47min
Gesamte Bitrate : 913 Kbps
Verwendetes Programm : VirtualDubMod 1.5.10.2 (build 2540/release)
verwendete Encoder-Bibliothek : VirtualDubMod build 2540/release

Video
Format : MPEG-4 Visual
Format profile : Streaming [email protected]
Format settings, BVOP : Yes
Format settings, QPel : No
Format settings, GMC : 0 warppoint
Format settings, Matrix : Default
Codec ID : XVID
Codec ID/Hint : XviD
Duration : 1h 47min
Bitrate : 752 Kbps
Breite : 624 Pixel
Höhe : 256 Pixel
Bildseitenverhältnis : 2.438
Bildwiederholungsrate : 25.000 FPS
Auflösung : 8 bits
Colorimetry : 4:2:0
Scan type : Progressive
Bits/(Pixel*Frame) : 0.188
Stream size : 577 MiB
verwendete Encoder-Bibliothek : XviD 1.2.-127(dev)
verwendete Encoder-Bibliothek /D : UTC 2006-11-01

Audio
Format : MPEG Audio
Format version : Version 1 / Layer 3
Codec ID : 55
Codec ID/Hint : MP3
Duration : 1h 47min
Bitraten-Modus : VBR
Bitrate : 148 Kbps
Minimum bit rate : 32.0 Kbps
Kanäle : 2 Kanäle
Samplingrate : 48.0 KHz
Auflösung : 16 bits
Video0 Verzögerung : 480ms
Stream size : 113 MiB
verwendete Encoder-Bibliothek : LAME3.98b
Kodierungseinstellungen : VBR (mtrh)

Autoverkäufer Terry (Jason Statham) hat immer die Finger von den großen Sachen gelassen. Bis die bildschöne Martine (Saffron Burrows), eine Freundin aus Jugendtagen, unvermittelt bei ihm auftaucht und ein verlockendes Angebot unterbreitet: Den todsicheren Bruch in der Lloyds Bank in der Londoner Baker Street. In ihren Schließfächern sollen sich Geld und Juwelen im Wert von mehreren Millionen befinden. Terry beißt an. Er weiß ja nicht, dass er nicht nur auf Moneten, sondern auch eine Reihe schmutziger Geheimnisse stoßen wird. Die Londoner Unterwelt, einige Gentlemen der feinen Gesellschaft und sogar das Königshaus haben großes Interesse daran, dass sie nicht an die Öffentlichkeit geraten. Damit ist die Jagd auf Terry und seine Jungs eröffnet...

related torrents

Torrent name

health leech seeds Size
 


comments (0)

Main Menu