Jazz

Coleman Hawkins The Hawk Swings vol 1&2 (1960) FLAC

  • Download 5x Faster
  • Download torrent
  • Direct Download
  • Rate this torrent +  |  -
Coleman Hawkins The Hawk Swings vol 1&2 (1960) FLAC

Anonymous and free Direct Download 300GB+


Torrent info

Name:Coleman Hawkins The Hawk Swings vol 1&2 (1960) FLAC

Total Size: 407.12 MB

Magnet: Magnet Link

Seeds: 0

Leechers: 0

Stream: Watch Online @ Movie4u

Last Updated: 2013-08-26 13:51:23 (Update Now)

Torrent added: 2008-08-10 06:37:42



VPN For Torrents

Torrent Files List


Coleman Hawkins - The Hawk Swings vol. 1 (1960) [FLAC] (Size: 407.12 MB) (Files: 36)

 Coleman Hawkins - The Hawk Swings vol. 1 (1960) [FLAC]

  01 - Cloudy.flac

23.21 MB

  02 - Almost Dawn.flac

35.33 MB

  03 - Stake Out.flac

23.93 MB

  04 - Crosstown.flac

19.09 MB

  05 - Shadows.flac

20.09 MB

  Checksums.md5

0.97 KB

  EAC.log

3.23 KB

  Info.txt

0.24 KB

  Playlist.m3u

0.31 KB

  Range (wav).cue

0.72 KB

  Scans

   Booklet 001.png

14.08 MB

   Booklet 002.png

11.25 MB

   Disc.png

9.93 MB

   Tray.png

11.88 MB

  The Hawk Swings vol. 1 (flac noncompliant).cue

0.86 KB

  The Hawk Swings vol. 1 (wav noncompliant).cue

0.85 KB

  Thumb.jpg

11.95 KB

 Coleman Hawkins - The Hawk Swings vol. 2 (1960) [FLAC]

  01 - Moodsville.flac

37.15 MB

  02 - After Midnight.flac

24.85 MB

  03 - Bean In Orbit.flac

35.05 MB

  04 - Stalking.flac

53.39 MB

  05 - Hassle.flac

40.85 MB

  Checksums.md5

0.98 KB

  EAC.log

3.24 KB

  Info.txt

0.25 KB

  Playlist.m3u

0.32 KB

  Range (wav).cue

0.76 KB

  Scans

   Booklet 001.png

12.41 MB

   Booklet 002.png

12.50 MB

   Disc.png

10.12 MB

   Tray.png

11.99 MB

  The Hawk Swings vol. 2 (flac noncompliant).cue

0.91 KB

  The Hawk Swings vol. 2 (wav noncompliant).cue

0.90 KB

  Thumb.jpg

11.50 KB

 Read me.txt

0.27 KB

 Torrent downloaded from Demonoid.com.txt

0.05 KB
 

Announce URL:

Torrent description

Coleman Hawkins - The Hawk Swings vol. 1

1. Cloudy
2. Almost Dawn
3. Stake Out
4. Crosstown
5. Shadows

Coleman Hawkins - ts
Thad Jones - tp
Eddie Costa - p, vb
George Duvivier - b
Osie Johnson - d
Recorded in New York City 1960

Coleman Hawkins - The Hawk Swings vol. 2

1. Moodsville
2. After Midnight
3. Bean In Orbit
4. Stalking
5. Hassle

Coleman Hawkins - ts
Thad Jones - tp
Eddie Costa - p, vb
George Duvivier - b
Osie Johnson - d
Recorded in New York City 1960

Combined EAC log
Exact Audio Copy V0.99 prebeta 4 from 23. January 2008

EAC extraction logfile from 7. August 2008, 10:12

Coleman Hawkins / The Hawk Swings vol. 1

Used drive : HL-DT-STDVD-ROM GDR8163B Adapter: 1 ID: 1

Read mode : Secure
Utilize accurate stream : Yes
Defeat audio cache : Yes
Make use of C2 pointers : No

Read offset correction : 102
Overread into Lead-In and Lead-Out : No
Fill up missing offset samples with silence : Yes
Delete leading and trailing silent blocks : No
Null samples used in CRC calculations : Yes
Used interface : Installed external ASPI interface
Gap handling : Appended to previous track

Used output format : User Defined Encoder
Selected bitrate : 768 kBit/s
Quality : High
Add ID3 tag : No
Command line compressor : C:\Program Files\Exact Audio Copy\FLAC\FLAC.EXE
Additional command line options : -8 -V -T "ARTIST=%a" -T "TITLE=%t" -T "ALBUM=%g" -T "DATE=%y" -T "TRACKNUMBER=%n" -T "GENRE=%m" -T "COMMENT=EAC FLAC -8" %s


TOC of the extracted CD

Track | Start | Length | Start sector | End sector
---------------------------------------------------------
1 | 0:00.00 | 5:44.47 | 0 | 25846
2 | 5:44.47 | 9:09.38 | 25847 | 67059
3 | 14:54.10 | 6:27.37 | 67060 | 96121
4 | 21:21.47 | 5:16.15 | 96122 | 119836
5 | 26:37.62 | 5:55.13 | 119837 | 146474


Track 1

Filename D:\Jazz\Coleman Hawkins - The Hawk Swings vol. 1 (1960) [FLAC]\01 - Cloudy.wav

Pre-gap length 0:00:02.00

Peak level 93.7 %
Track quality 100.0 %
Test CRC 4E299C94
Copy CRC 4E299C94
Track not present in AccurateRip database
Copy OK

Track 2

Filename D:\Jazz\Coleman Hawkins - The Hawk Swings vol. 1 (1960) [FLAC]\02 - Almost Dawn.wav

Pre-gap length 0:00:03.72

Peak level 100.0 %
Track quality 100.0 %
Test CRC 1319277B
Copy CRC 1319277B
Track not present in AccurateRip database
Copy OK

Track 3

Filename D:\Jazz\Coleman Hawkins - The Hawk Swings vol. 1 (1960) [FLAC]\03 - Stake Out.wav

Pre-gap length 0:00:04.25

Peak level 90.8 %
Track quality 99.9 %
Test CRC 77184557
Copy CRC 77184557
Track not present in AccurateRip database
Copy OK

Track 4

Filename D:\Jazz\Coleman Hawkins - The Hawk Swings vol. 1 (1960) [FLAC]\04 - Crosstown.wav

Pre-gap length 0:00:03.70

Peak level 71.3 %
Track quality 100.0 %
Test CRC 0C54A901
Copy CRC 0C54A901
Track not present in AccurateRip database
Copy OK

Track 5

Filename D:\Jazz\Coleman Hawkins - The Hawk Swings vol. 1 (1960) [FLAC]\05 - Shadows.wav

Pre-gap length 0:00:04.02

Peak level 77.2 %
Track quality 100.0 %
Test CRC F2E7376C
Copy CRC F2E7376C
Track not present in AccurateRip database
Copy OK


None of the tracks are present in the AccurateRip database

No errors occurred

End of status report

Exact Audio Copy V0.99 prebeta 4 from 23. January 2008

EAC extraction logfile from 7. August 2008, 12:17

Coleman Hawkins / The Hawk Swings vol. 2

Used drive : HL-DT-STDVD-ROM GDR8163B Adapter: 1 ID: 1

Read mode : Secure
Utilize accurate stream : Yes
Defeat audio cache : Yes
Make use of C2 pointers : No

Read offset correction : 102
Overread into Lead-In and Lead-Out : No
Fill up missing offset samples with silence : Yes
Delete leading and trailing silent blocks : No
Null samples used in CRC calculations : Yes
Used interface : Installed external ASPI interface
Gap handling : Appended to previous track

Used output format : User Defined Encoder
Selected bitrate : 768 kBit/s
Quality : High
Add ID3 tag : No
Command line compressor : C:\Program Files\Exact Audio Copy\FLAC\FLAC.EXE
Additional command line options : -8 -V -T "ARTIST=%a" -T "TITLE=%t" -T "ALBUM=%g" -T "DATE=%y" -T "TRACKNUMBER=%n" -T "GENRE=%m" -T "COMMENT=EAC FLAC -8" %s


TOC of the extracted CD

Track | Start | Length | Start sector | End sector
---------------------------------------------------------
1 | 0:00.00 | 6:16.45 | 0 | 28244
2 | 6:16.45 | 4:49.03 | 28245 | 49922
3 | 11:05.48 | 6:05.65 | 49923 | 77362
4 | 17:11.38 | 9:05.37 | 77363 | 118274
5 | 26:17.00 | 6:32.08 | 118275 | 147682


Track 1

Filename D:\Jazz\Coleman Hawkins - The Hawk Swings vol. 2 (1960) [FLAC]\01 - Moodsville.wav

Pre-gap length 0:00:02.00

Peak level 100.0 %
Track quality 100.0 %
Test CRC 97928F88
Copy CRC 97928F88
Track not present in AccurateRip database
Copy OK

Track 2

Filename D:\Jazz\Coleman Hawkins - The Hawk Swings vol. 2 (1960) [FLAC]\02 - After Midnight.wav

Pre-gap length 0:00:02.03

Peak level 85.4 %
Track quality 100.0 %
Test CRC 7AED6CE5
Copy CRC 7AED6CE5
Track not present in AccurateRip database
Copy OK

Track 3

Filename D:\Jazz\Coleman Hawkins - The Hawk Swings vol. 2 (1960) [FLAC]\03 - Bean In Orbit.wav

Pre-gap length 0:00:02.05

Peak level 83.0 %
Track quality 100.0 %
Test CRC EA50F51F
Copy CRC EA50F51F
Track not present in AccurateRip database
Copy OK

Track 4

Filename D:\Jazz\Coleman Hawkins - The Hawk Swings vol. 2 (1960) [FLAC]\04 - Stalking.wav

Pre-gap length 0:00:01.05

Peak level 95.6 %
Track quality 100.0 %
Test CRC 04FB50F8
Copy CRC 04FB50F8
Track not present in AccurateRip database
Copy OK

Track 5

Filename D:\Jazz\Coleman Hawkins - The Hawk Swings vol. 2 (1960) [FLAC]\05 - Hassle.wav

Pre-gap length 0:00:01.70

Peak level 89.7 %
Track quality 100.0 %
Test CRC 1E3C10DB
Copy CRC 1E3C10DB
Track not present in AccurateRip database
Copy OK


None of the tracks are present in the AccurateRip database

No errors occurred

End of status report

related torrents

Torrent name

health leech seeds Size
 


comments (0)

Main Menu