Movies - Other

Alien Raiders VOSTFR DVDRiP XviD FLF

  • Download 5x Faster
  • Download torrent
  • Direct Download
  • Rate this torrent +  |  -
Alien Raiders VOSTFR DVDRiP XviD FLF

Free and Direct Download with Usenet.nl 300GB+ free


Torrent info

Name:Alien Raiders VOSTFR DVDRiP XviD FLF

Total Size: 701.99 MB

Magnet: Magnet Link

Seeds: 0

Leechers: 0

Stream: Watch Online @ Movie4u

Last Updated: 2010-08-24 13:53:22 (Update Now)

Torrent added: 2009-08-28 15:47:49





Torrent Files List


Alien.Raiders.VOSTFR.DVDRiP.XviD-FLF.avi (Size: 701.99 MB) (Files: 2)

 Alien.Raiders.VOSTFR.DVDRiP.XviD-FLF.avi

701.98 MB

 Alien.Raiders.VOSTFR.DVDRiP.XviD-FLF.nfo

7.98 KB
 

Announce URL: http://tracker.thepiratebay.org/announce

Torrent description


¸
ÛÛÛÛÛÛÛÛÛ ÛÛÛ ÛÛÛÛÛÛÛÛÛ
ÛÛÛ ÛÛÛ ÛÛÛ
ÛÛÛ ÛÛÛ ÛÛÛ
ÛÛÛ ÛÛÛ ÛÛÛ
ÛÛÛÛÛÛÛÛ ÛÛÛ ÛÛÛÛÛÛÛÛ
ÛÛÛ ÛÛÛ ÛÛÛ
ÛÛÛ ÛÛÛ ÛÛÛ
ÛÛÛ ÛÛÛ ÛÛÛ
ÛÛÛ ÛÛÛ ÛÛÛ
ÛÛÛ ÛÛÛÛÛÛÛÛ ÛÛÛ

ÛÛÛÛÛÛÛÛÛÛÛÛÛÛÛÛÛÛÛÛÛÛÛÛÛÛÛÛÛÛÛÛÛÛÛÛÛÛÛÛÛÛÛÛÛÛÛÛÛÛÛÛÛÛÛÛÛÛÛÛÛÛÛÛÛÛÛÛÛÛÛÛÛÛÛÛÛÛÛÛÛÛÛÛ
Û
ÛÛÛÛÛÛÛÛÛÛÛÛÛÛÛÛÛÛÛÛÛÛ R E L E A S E N A M E ÛÛÛÛÛÛÛÛÛÛÛÛÛÛÛÛÛÛÛÛÛÛÛÛÛÛÛÛÛÛÛÛÛÛÛÛ
ÛÛÛÛÛÛÛÛÛÛÛÛÛÛÛÛÛÛÛÛÛÛÛÛÛÛÛÛ Û
Û
Alien.Raiders.VOSTFR.DVDRiP.XviD-FLF Û
Û
ÛÛÛÛÛÛÛÛÛÛÛÛÛÛÛÛÛÛÛÛÛÛÛÛÛÛÛÛÛÛÛÛÛÛÛÛÛÛÛÛÛÛÛÛÛÛÛÛÛÛÛÛÛÛÛÛÛÛÛÛÛÛÛÛÛÛÛÛÛÛÛÛÛÛÛÛÛÛÛÛÛÛÛÛ
Û
ÛÛÛÛÛÛÛÛÛÛÛÛÛÛÛÛÛÛÛÛÛÛ R E L E A S E I N F O ÛÛÛÛÛÛÛÛÛÛÛÛÛÛÛÛÛÛÛÛÛÛÛÛÛÛÛÛÛÛÛÛÛÛÛÛ
ÛÛÛÛÛÛÛÛÛÛÛÛÛÛÛÛÛÛÛÛÛÛÛÛÛÛÛÛ Û
Û
Alien.Raiders Language : ENG Û
Û
01H25mn 2008 Subtitles : FR Û
Û
Horror Release Date : 16/03/2009 Û
Û
ÛÛÛÛÛÛÛÛÛÛÛÛÛÛÛÛÛÛÛÛÛÛÛÛÛÛÛÛÛÛÛÛÛÛÛÛÛÛÛÛÛÛÛÛÛÛÛÛÛÛÛÛÛÛÛÛÛÛÛÛÛÛÛÛÛÛÛÛÛÛÛÛÛÛÛÛÛÛÛÛÛÛÛÛ
General
Complete name : Alien.Raiders.VOSTFR.DVDRiP.XviD-FLF
Format : AVI
Format/Info : Audio Video Interleave
File size : 702 MiB
Duration : 1h 25mn

Video
Format : MPEG-4 Visual
Format profile : Streaming [email protected]
Format settings, BVOP : Yes
Format settings, QPel : No
Format settings, GMC : No warppoints
Format settings, Matrix : Default
Muxing mode : Packed bitstream
Codec ID : XVID
Codec ID/Hint : XviD
Duration : 1h 25mn
Bit rate : 1 015 Kbps
Width : 724 pixels
Height : 302 pixels
Display aspect ratio : 2.35
Frame rate : 23.976 fps
Resolution : 24 bits
Colorimetry : 4:2:0
Scan type : Progressive
Bits/(Pixel*Frame) : 0.194
Stream size : 618 MiB (88%)
Writing library : XviD 1.2.1 (UTC 2008-12-04)

Audio
Format : MPEG Audio
Format version : Version 1
Format profile : Layer 3
Codec ID : 55
Codec ID/Hint : MP3
Duration : 1h 25mn
Bit rate mode : Constant
Bit rate : 128 Kbps
Channel(s) : 2 channels
Sampling rate : 48.0 KHz
Resolution : 16 bits
Stream size : 78.0 MiB (11%)
Alignment : Aligned on interleaves
Interleave, duration : 42 ms (1.00 video frame)
Interleave, preload duration : 504 ms
ÛÛÛÛÛÛÛÛÛÛÛÛÛÛÛÛÛÛÛÛÛÛÛÛÛÛÛÛÛÛÛÛÛÛÛÛÛÛÛÛÛÛÛÛÛÛÛÛÛÛÛÛÛÛÛÛÛÛÛÛÛÛÛÛÛÛÛÛÛÛÛÛÛÛÛÛÛÛÛÛÛÛÛÛ
Û
ÛÛÛÛÛÛÛÛÛÛÛÛÛÛÛÛÛÛÛÛÛÛ R E L E A S E I M D B ÛÛÛÛÛÛÛÛÛÛÛÛÛÛÛÛÛÛÛÛÛÛÛÛÛÛÛÛÛÛÛÛÛÛÛ
ÛÛÛÛÛÛÛÛÛÛÛÛÛÛÛÛÛÛÛÛÛÛÛÛÛÛÛÛÛ Û
Û
Û
http://www.imdb.com/title/tt0996979/ Û
7.4/10 Û
Û
ÛÛÛÛÛÛÛÛÛÛÛÛÛÛÛÛÛÛÛÛÛÛÛÛÛÛÛÛÛÛÛÛÛÛÛÛÛÛÛÛÛÛÛÛÛÛÛÛÛÛÛÛÛÛÛÛÛÛÛÛÛÛÛÛÛÛÛÛÛÛÛÛÛÛÛÛÛÛÛÛÛÛÛÛ
Û
ÛÛÛÛÛÛÛÛÛÛÛÛÛÛÛÛÛÛÛÛÛÛ R E L E A S E T E A M ÛÛÛÛÛÛÛÛÛÛÛÛÛÛÛÛÛÛÛÛÛÛÛÛÛÛÛÛÛÛÛÛÛÛ
ÛÛÛÛÛÛÛÛÛÛÛÛÛÛÛÛÛÛÛÛÛÛÛÛÛÛÛÛÛÛ Û
Û
We are looking for Translate-Supl. Û
Û
[email protected] Û
Û
FLF RG Û
ÛÛÛÛÛÛÛÛÛÛÛÛÛÛÛÛÛÛÛÛÛÛÛÛÛÛÛÛÛÛÛÛÛÛÛÛÛÛÛÛÛÛÛÛÛÛÛÛÛÛÛÛÛÛÛÛÛÛÛÛÛ ASCII.ART.FloLaFlo ÛÛÛ
Û Û
Û Remember, SUPPORT THE COMPANIES THAT PRODUCE QUALITY DVD, if you Û
Û liked this movie, BUY IT! Û
Û Û
ÜÜÜÜÜÜÜÜÜÜÜÜÜÜÜÜÜÜÜÜÜÜÜÜÜÜÜÜÜÜÜÜÜÜÜÜÜÜÜÜÜÜÜÜÜÜÜÜÜÜÜÜÜÜÜÜÜÜÜÜÜÜÜÜÜÜÜÜÜÜÜÜÜÜÜÜÜÜÜÜÜÜÜÜ
Û70 7h3 "un!73d r31!4813 p!r473 84y u53r5", Û
Û Û
Ûn0w4d4y5 4 107 0f p8 m3m83r5 48u53 7h3!r p8 m3m83r5h!p 8y !n73n!0n411y p057!n9 Û
Ûf4k3 (0mm3n75 & f!135. 7h3!r m34n!n9 !5 ju57 70 5pr34d (0nfu5!0n 4nd 7ry 70 Û
Ûfru57r473 p8 4nd !7'5 u53r5. 4nd 1355 d0wn104d3r5 = 1355 533d3r5 = 1355 Û
Ûd0wn104d5p33d 37( 37(. Û
Û!7'5 !n 7h3 83n3f!7 0f p8 4nd 411 r31!4813 u53r5 70 w4rn 34(h 07h3r 480u7 p30p13 Û
Ûwh0 !n73n!0n411y k33p p057!n9 f4k3 (0mm3n75 & f!135. !7'5 4n 345y 4n5w3r 494!n57 Û
Û7h053 wh0 !n73n!0n411y k33p p057!n9 f4k3 (0mm3n75 & f!135, wh!(h !5 4 n3v3r Û
Û3nd!n9 !55u3. Û
Ûwh3n r3p0r7!n9 3rr0r5 0r f4153 p05!7!v35 ju57 k33p !n m!nd 7h47 wh47 9035 up f0r Û
Û0n3 d035 n07 41w4y5 9035 up f0r 4n07h3r. 7h47'5 f0r 807h 7h3 w0rk!n9 0f 4n 4pp Û
Û4nd 480u7 f4153 p05!7!v35! r3m3m83r: wh473v3r !5 54!d, 54y !7 (0n57ru(7!v3! Û
Û137'5 ju57 7ry 70 h31p 34(h 07h3r 4nd p8 8y 7h!nk!n9 480u7 wh47'5 54!d & p0573d. Û
Û7h!n95 4r3 411 up 70 y0u, 7h3 "un!73d r31!4813 p!r473 84y u53r5"! Û
Û3nj0y 7h3 p!r473 84y *Encrypted* Û
ÛÜÜÜÜÜÜÜÜÜÜÜÜÜÜÜÜÜÜÜÜÜÜÜÜÜÜÜÜÜÜÜÜÜÜÜÜÜÜÜÜÜÜÜÜÜÜÜÜÜÜÜÜÜÜÜÜÜÜÜÜÜÜÜÜÜÜÜÜÜÜÜÜÜÜÜÜÜÜÜÜÜÜÛ
Û Û Û Û Û Û Û Å Û Û Û Û Û Û Û
Û Û Û Û Û Û Å C Å Û Û Û Û Û Û
Û Û Û Û Û Å Å Å Å Å Û Û Û Û Û
Û Û Û Û Å Å Å Å Å Å Å Û Û Û Û
Û Û Û Å Å Å Å Å Å Å Å Å Û Û Û
Û Û Û Û Û Û Û Û Û Û Û Û Û Û Û
Û Û Û Û Û K O P I M I Û Û Û Û Û
ßßßßßßßßßßßßßßßßßßßßßßßßßßßßßßß

related torrents

Torrent name

health leech seeds Size
 

comments (0)

Main Menu