Funny clips

bubble gang fri28aug2009 PHILIPPINES tvrip (TAGALOG)

  • Download 5x Faster
  • Download torrent
  • Direct Download
  • Rate this torrent +  |  -

Torrent info

Name:bubble gang fri28aug2009 PHILIPPINES tvrip (TAGALOG)

Total Size: 397.77 MB

Magnet: Magnet Link

Seeds: 0

Leechers: 1

Stream: Watch Full Movie @ Movie4u

Last Updated: 2016-01-21 16:41:28 (Update Now)

Torrent added: 2009-08-28 15:35:45



VPN For Torrents

Torrent Files List


bubble gang fri28aug2009 PHILIPPINES tvrip (TAGALOG).avi (Size: 397.77 MB) (Files: 3)

 bubble gang fri28aug2009 PHILIPPINES tvrip (TAGALOG).avi

389.72 MB

 sample.avi

8.05 MB

 Torrent downloaded from Demonoid.com.txt

0.05 KB
 

tracker

leech seeds
 

Torrent description

Bubble Gang


Are you ready to laugh til you drop? For more than a decade, Bubble Gang has made audiences around the
country roll over with laughter. Their commercial spoofs and recurring characters keep everyone in stitches
while the parodies on politicians prove that nothing is sacred to their funny bones. The gang's gags and
segments continue to make this the country's funniest spoof show.

Year: 1995
Genre: Comedy
Cast:

Michael V., Ogie Alcasid, Wendell Ramos, Antonio Aquitania, Boy2 Quizon,
Rufa Mae Quinto,Maureen Larazabal, Francine Prieto, Gian Carlos

Rating: PG
Network: GMA7
Format : AVI
Format/Info : Audio Video Interleave
File size : 390 MiB
Duration : 49mn 10s
Overall bit rate : 1 108 Kbps
Writing application : VirtualDubMod 1.5.4.1 (build 2178/release)
Writing library : VirtualDubMod build 2178/release

Video
ID : 0
Format : MPEG-4 Visual
Format profile : [email protected]
Format settings, BVOP : Yes
Format settings, QPel : No
Format settings, GMC : No warppoints
Format settings, Matrix : Default (H.263)
Muxing mode : Packed bitstream
Codec ID : XVID
Codec ID/Hint : XviD
Duration : 49mn 10s
Bit rate : 996 Kbps
Width : 656 pixels
Height : 496 pixels
Display aspect ratio : 4:3
Frame rate : 29.970 fps
Resolution : 24 bits
Colorimetry : 4:2:0
Scan type : Progressive
Bits/(Pixel*Frame) : 0.102
Stream size : 350 MiB (90%)
Writing library : XviD 1.2.1 (UTC 2008-12-04)

Audio
ID : 1
Format : MPEG Audio
Format version : Version 1
Format profile : Layer 3
Codec ID : 55
Codec ID/Hint : MP3
Duration : 49mn 10s
Bit rate mode : Variable
Bit rate : 101 Kbps
Nominal bit rate : 128 Kbps
Channel(s) : 2 channels
Sampling rate : 32.0 KHz
Resolution : 16 bits
Stream size : 35.4 MiB (9%)
Alignment : Aligned on interleaves
Interleave, duration : 36 ms (1.08 video frame)
Interleave, preload duration : 526 ms
Writing library : LAME3.98r

related torrents

Torrent name

health leech seeds Size
 


comments (0)

Main Menu

 

script data-cfasync="false" src="//d2ghscazvn398x.cloudfront.net/?cshgd=690275">