Action

Nome in codice Nina DivX Ita [TNTVillage]

  • Download 5x Faster
  • Download torrent
  • Direct Download
  • Rate this torrent +  |  -
Nome in codice Nina DivX Ita [TNTVillage]

Anonymous and Free Direct Download


Torrent info

Name:Nome in codice Nina DivX Ita [TNTVillage]

Total Size: 794.32 MB

Magnet: Magnet Link

Seeds: 2

Leechers: 1

Stream: Watch Online @ Movie4u

Last Updated: 2015-05-23 14:14:14 (Update Now)

Torrent added: 2009-08-28 15:33:58



VPN For Torrents

Torrent Files List


Nome in codice Nina (Dvdrip).avi (Size: 794.32 MB) (Files: 1)

 Nome in codice Nina (Dvdrip).avi

794.32 MB
 

tracker

leech seeds
 

Torrent description

Nome in codice Nina - DivX Ita [TNTVillage]
[DivX - Ita Mp3]

Language: Ita

Visit:
http://www.tntvillage.scambioetico.org/

Info:
http://it.wikipedia.org/wiki/Nome_in_codice:_Nina

IMDB:
http://italian.imdb.com/title/tt0107843/

Img:
Nome in codice Nina   DivX Ita [TNTVillage] preview 0
Nome in codice Nina   DivX Ita [TNTVillage] preview 1

--- Mediainfo ---
General
Count : 259
Count of stream of this kind : 1
Kind of stream : General
Kind of stream : General
Stream identifier : 0
Inform : AVI: 794 MiB, 1h 43mn
Count of video streams : 1
Count of audio streams : 1
Video_Format_List : MPEG-4 Visual
Video_Format_WithHint_List : MPEG-4 Visual (DivX 5)
Codecs Video : DivX 5
Audio_Format_List : MPEG Audio
Audio_Format_WithHint_List : MPEG Audio (MP3)
Audio codecs : MPEG-1 Audio layer 3
Complete name : Nome in codice Nina (Dvdrip).avi
Folder name : /mnt/EMULE/Share/Film
File name : Nome in codice Nina (Dvdrip).avi
File extension : avi
Format : AVI
Format : AVI
Format/Info : Audio Video Interleave
Format/Extensions usually used : avi
Interleaved : Yes
Codec : AVI
Codec : AVI
Codec/Info : Audio Video Interleave
Codec/Extensions usually used : avi
File size : 832907264
File size : 794 MiB
File size : 794 MiB
File size : 794 MiB
File size : 794 MiB
File size : 794.3 MiB
Duration : 6232720
Duration : 1h 43mn
Duration : 1h 43mn 52s 720ms
Duration : 1h 43mn
Duration : 01:43:52.720
Overall bit rate : 1069077
Overall bit rate : 1 069 Kbps
Stream size : 7567874
Stream size : 7.22 MiB (1%)
Stream size : 7 MiB
Stream size : 7.2 MiB
Stream size : 7.22 MiB
Stream size : 7.217 MiB
Stream size : 7.22 MiB (1%)
Proportion of this stream : 0.00909
Writing library : VirtualDub build 15584/release
Writing library : VirtualDub build 15584/release

Video
Count : 146
Count of stream of this kind : 1
Kind of stream : Video
Kind of stream : Video
Stream identifier : 0
Inform : 867 Kbps, 720*576 (5:4), at 25.000 fps, MPEG-4 Visual (DivX 5) (PAL)
ID : 0
ID : 0
Format : MPEG-4 Visual
Format settings, BVOP : No
Format settings, BVOP : No
Format settings, QPel : No
Format settings, QPel : No
Format settings, GMC : 0
Format settings, GMC : No warppoints
Format settings, Matrix : Default (H.263)
Format settings, Matrix : Default (H.263)
Codec ID : DX50
Codec ID/Hint : DivX 5
Codec ID/Url : http://mediaarea.net/DX50
Codec : DX50
Codec : DivX 5
Codec/Family : MPEG-4V
Codec/Url : http://www.divx.com
Codec/CC : DX50
Codec settings, Packet bitstream : No
Codec settings, BVOP : No
Codec settings, QPel : No
Codec settings, GMC : 0
Codec settings, GMC : No warppoints
Codec settings, Matrix : Default (H.263)
Duration : 6232720
Duration : 1h 43mn
Duration : 1h 43mn 52s 720ms
Duration : 1h 43mn
Duration : 01:43:52.720
Bit rate : 867364
Bit rate : 867 Kbps
Width : 720
Width : 720 pixels
Height : 576
Height : 576 pixels
Pixel aspect ratio : 1.000
Display aspect ratio : 1.250
Display aspect ratio : 5:4
Frame rate : 25.000
Frame rate : 25.000 fps
Frame count : 155818
Standard : PAL
Resolution : 24
Resolution : 24 bits
Colorimetry : 4:2:0
Scan type : Progressive
Scan type : Progressive
Interlacement : PPF
Interlacement : Progressive
Bits/(Pixel*Frame) : 0.084
Delay : 0
Stream size : 675755255
Stream size : 644 MiB (81%)
Stream size : 644 MiB
Stream size : 644 MiB
Stream size : 644 MiB
Stream size : 644.5 MiB
Stream size : 644 MiB (81%)
Proportion of this stream : 0.81132
Writing library : DivX503b1338
Writing library : DivX 5.2.1 (DrDivX 106) (UTC 2004-09-08)
Writing library/Name : DivX
Writing library/Version : 5.2.1 (DrDivX 106)
Writing library/Date : UTC 2004-09-08

Audio
Count : 122
Count of stream of this kind : 1
Kind of stream : Audio
Kind of stream : Audio
Stream identifier : 0
Inform : 192 Kbps, 44.1 KHz, 2 channels, MPEG Audio (MP3) (Version 1) (Layer 3)
ID : 1
ID : 1
Format : MPEG Audio
Format version : Version 1
Format profile : Layer 3
Codec ID : 55
Codec ID/Hint : MP3
Codec ID/Url : http://www.iis.fraunhofer.de/amm/index.html
Codec : MPA1L3
Codec : MPEG-1 Audio layer 3
Codec/Family : MPEG-1
Codec/Info : MPEG-1 or 2 layer 3
Codec/Url : http://www.iis.fraunhofer.de/amm/index.html
Codec/CC : 55
Duration : 6232673
Duration : 1h 43mn
Duration : 1h 43mn 52s 673ms
Duration : 1h 43mn
Duration : 01:43:52.673
Bit rate mode : CBR
Bit rate mode : Constant
Bit rate : 192000
Bit rate : 192 Kbps
Channel(s) : 2
Channel(s) : 2 channels
Sampling rate : 44100
Sampling rate : 44.1 KHz
SamplingCount : 274860879
Resolution : 16
Resolution : 16 bits
Delay : 26
Delay : 26ms
Delay : 26ms
Delay : 26ms
Delay : 00:00:00.026
Video delay : 26
Video delay : 26ms
Video delay : 26ms
Video delay : 26ms
Video delay : 00:00:00.026
Video0 delay : 26
Video0 delay : 26ms
Video0 delay : 26ms
Video0 delay : 26ms
Video0 delay : 00:00:00.026
Stream size : 149584135
Stream size : 143 MiB (18%)
Stream size : 143 MiB
Stream size : 143 MiB
Stream size : 143 MiB
Stream size : 142.7 MiB
Stream size : 143 MiB (18%)
Proportion of this stream : 0.17959
Alignment : Split
Alignment : Split accross interleaves
Interleave, duration : 1.00
Interleave, duration : 40
Interleave, duration : 40 ms (1.00 video frame)
Interleave, preload duration : 500
Interleave, preload duration : 500 ms

related torrents

Torrent name

health leech seeds Size
 


comments (0)

Main Menu