Mystery

The Chaos Experiment 2009 DVDRIP XviD ZEKTORM

  • Download 5x Faster
  • Download torrent
  • Direct Download
  • Rate this torrent +  |  -
The Chaos Experiment 2009 DVDRIP XviD ZEKTORM

Anonymous and Direct Download 300GB+ free


Torrent info

Name:The Chaos Experiment 2009 DVDRIP XviD ZEKTORM

Total Size: 701.20 MB

Magnet: Magnet Link

Seeds: 0

Leechers: 1

Stream: Watch Online @ Movie4u

Last Updated: 2015-09-20 08:14:47 (Update Now)

Torrent added: 2009-08-28 15:21:16




Torrent Files List


READ.hlp (Size: 701.20 MB) (Files: 3)

 READ.hlp

11.27 KB

 TCE-ZEKTORM.avi

701.18 MB

 Torrent downloaded from Demonoid.com.txt

0.05 KB
 

tracker

leech seeds
 

Torrent description

Format : AVI
File size : 701 MiB
Duration : 1h 30mn
Overall bit rate : 1083 Kbps
Source : DVD NTSC

Video
Format : MPEG-4 Visual
Format profile : Streaming [email protected]
Codec ID : XVID
Codec ID/Hint : XviD
Duration : 1h 30mn
Bit rate : 959 Kbps
Width : 720 pixels
Height : 320 pixels
Display aspect ratio : 2.25
Frame rate : 23.976 fps
Resolution : 24 bits
Colorimetry : 4:2:0
Scan type : Progressive
Bits/(Pixel*Frame) : 0.174
Stream size : 621 MiB (89%)
Writing library : XviD

Audio
Format : MPEG Audio
Format version : Version 1
Format profile : Layer 3
Codec ID : 55
Codec ID/Hint : MP3
Duration : 1h 30mn
Bit rate mode : Variable
Bit rate : 111 Kbps
Minimum bit rate : 128 Kbps
Channel(s) : 2 channels
Sampling rate : 48.0 KHz
Resolution : 16 bits
Stream size : 71.9 MiB (10%)
Writing library : LAME3.98r
Encoding settings : ABR

related torrents

Torrent name

health leech seeds Size
 


comments (0)

Main Menu