Pop

She's not me São Paulo avi

  • Download 5x Faster
  • Download torrent
  • Direct Download
  • Rate this torrent +  |  -
She's not me São Paulo avi

Free and Direct Download with Usenet 300GB+ free


Torrent info

Name:She's not me São Paulo avi

Total Size: 1.08 GB

Magnet: Magnet Link

Seeds: 0

Leechers: 0

Stream: Watch Online @ Movie4u

Last Updated: 2010-09-18 07:17:24 (Update Now)

Torrent added: 2009-08-28 15:07:13




Torrent Files List


She's not me - São Paulo -.avi (Size: 1.08 GB) (Files: 1)

 She's not me - São Paulo -.avi

1.08 GB
 

Announce URL: http://tracker.openbittorrent.com/announce

Torrent description

Sticky & Sweet Tour -
São Paulo
Brazil
She\'s not me
.
Video
Format : Digital Video
Codec ID : dvsd
Codec ID/Hint : Sony
Duration : 5mn 6s
Bit rate : 28.8 Mbps
Width : 720 pixels
Height : 480 pixels
Display aspect ratio : 1.500
Original display aspect ratio : 4/3
Frame rate mode : Constant
Frame rate : 29.970 fps
Standard : NTSC
Resolution : 24 bits
Colorimetry : 4:1:1
Scan type : Interlaced
Bits/(Pixel*Frame) : 2.778
Stream size : 1.03 GiB (95%)

Audio
Format : PCM
Format settings, Endianness : Little
Format settings, Sign : Unsigned
Codec ID : 1
Codec ID/Hint : Microsoft
Duration : 5mn 6s
Bit rate mode : Constant
Bit rate : 1 536 Kbps
Channel(s) : 2 channels
Sampling rate : 48.0 KHz
Resolution : 16 bits
Stream size : 56.1 MiB (5%)
Interleave, duration : 267 ms (8.00 video frames)
Interleave, preload duration : 266 ms

related torrents

Torrent name

health leech seeds Size
 

comments (0)

Main Menu