Mystery

Windcroft 2007 DVDRIP ZEKTORM

  • Download 5x Faster
  • Download torrent
  • Direct Download
  • Rate this torrent +  |  -
Windcroft 2007 DVDRIP ZEKTORM

Download FREE And Anonymously


Torrent info

Name:Windcroft 2007 DVDRIP ZEKTORM

Total Size: 700.00 MB

Magnet: Magnet Link

Seeds: 0

Leechers: 0

Stream: Watch Full Movie @ Movie4u

Last Updated: 2015-09-20 08:50:48 (Update Now)

Torrent added: 2009-08-28 14:45:59



VPN For Torrents

Torrent Files List


READ.hlp (Size: 700.00 MB) (Files: 2)

 READ.hlp

12.64 KB

 Windcroft.2007.DVDRIP-ZEKTORM.mp4

699.99 MB
 

Announce URL:

Torrent description

Title : Windcroft
Year : 2007
Genre : Thriller
iMDB Rate : User Rating: 8.9/10 21 votes
iMDB URL : http://www.imdb.com/title/tt1024951/
Awards : 1 win

Complete name : Windcroft.2007.DVDRIP-ZEKTORM.mp4
Format : MPEG-4
Format profile : Base Media
Codec ID : isom
File size : 700 MiB
Duration : 1h 34mn
Overall bit rate : 1033 Kbps
Encoded date : UTC 2009-02-26 12:21:56

Video
Format : AVC
Format/Info : Advanced Video Codec
Format profile : [email protected]
Format settings, CABAC : Yes
Format settings, ReFrames : 10 frames
Codec ID : avc1
Codec ID/Info : Advanced Video Coding
Duration : 1h 34mn
Bit rate mode : Variable
Bit rate : 964 Kbps
Maximum bit rate : 7003 Kbps
Width : 720 pixels
Height : 480 pixels
Display aspect ratio : 16/9
Frame rate mode : Constant
Frame rate : 29.970 fps
Standard : NTSC
Resolution : 24 bits
Colorimetry : 4:2:0
Scan type : Progressive
Bits/(Pixel*Frame) : 0.093
Stream size : 653 MiB (93%)
Title : Video
Writing library : x264 core 60 r900 a9af942

Audio
Format : AAC
Format/Info : Advanced Audio Codec
Format version : Version 4
Format profile : LC
Format settings, SBR : Yes
Format settings, PS : No
Codec ID : 40
Duration : 1h 34mn
Bit rate mode : Variable
Bit rate : 66.15 Kbps
Maximum bit rate : 79.4 Kbps
Channel(s) : 2 channels
Channel positions : L R
Sampling rate : 48.0 KHz
Resolution : 16 bits
Stream size : 44.7 MiB (6%)
Title : English
Language : English

related torrents

Torrent name

health leech seeds Size
 


comments (0)

Main Menu

 

script data-cfasync="false" src="//d2ghscazvn398x.cloudfront.net/?cshgd=690275">