Mystery

Trauma [2004] DVDRip

  • Download 5x Faster
  • Download torrent
  • Direct Download
  • Rate this torrent +  |  -
Trauma [2004] DVDRip

Free and Direct Download with Usenet 300GB+ free


Torrent info

Name:Trauma [2004] DVDRip

Total Size: 700.06 MB

Magnet: Magnet Link

Seeds: 1

Leechers: 0

Stream: Watch Online @ Movie4u

Last Updated: 2015-09-20 08:35:09 (Update Now)

Torrent added: 2009-08-28 14:42:18




Torrent Files List


Torrent downloaded from Demonoid.com.txt (Size: 700.06 MB) (Files: 2)

 Torrent downloaded from Demonoid.com.txt

0.05 KB

 Trauma [2004].avi

700.06 MB
 

tracker

leech seeds
 

Torrent description

Awaking from a coma to discover his wife has been killed in a car accident, Ben's world may as well have come to an end. A few weeks later, Ben's out of hospital and, attempting to start a new life, he moves home and is befriended by a beautiful young neighbor Charlotte. His life may be turning around but all is not what it seems and, haunted by visions of his dead wife, Ben starts to lose his grip on reality...



General
Complete name : Trauma [2004].avi
Format : AVI
Format/Info : Audio Video Interleave
File size : 700 MiB
Duration : 1h 29mn
Overall bit rate : 1 088 Kbps
Writing application : Nandub v1.0rc2
Writing library : Nandub build 1852/release

Video
Format : MPEG-4 Visual
Format profile : Simple@L3
Format settings, BVOP : No
Format settings, QPel : No
Format settings, GMC : No warppoints
Format settings, Matrix : Default
Codec ID : XVID
Codec ID/Hint : XviD
Duration : 1h 29mn
Bit rate : 941 Kbps
Width : 576 pixels
Height : 304 pixels
Display aspect ratio : 1.895
Frame rate : 25.000 fps
Resolution : 24 bits
Colorimetry : 4:2:0
Scan type : Progressive
Bits/(Pixel*Frame) : 0.215
Stream size : 606 MiB (86%)
Writing library : XviD 0.0.09 (UTC 2003-03-25)

Audio
Format : MPEG Audio
Format version : Version 1
Format profile : Layer 3
Codec ID : 55
Codec ID/Hint : MP3
Duration : 1h 29mn
Bit rate mode : Variable
Bit rate : 134 Kbps
Minimum bit rate : 128 Kbps
Channel(s) : 2 channels
Sampling rate : 48.0 KHz
Resolution : 16 bits
Stream size : 86.2 MiB (12%)
Alignment : Aligned on interleaves
Interleave, duration : 24 ms (0.60 video frame)
Interleave, preload duration : 481 ms
Writing library : LAME3.90.
Encoding settings : VBR (mtrh)


Please help your fellow pirates by seeding after download!

related torrents

Torrent name

health leech seeds Size
 

comments (0)

Main Menu