Comedy

Sunshine Cleaning (2008) Amy Adams (DVDrip, Eng+opt NORDIC SUBS) Kuth

  • Download 5x Faster
  • Download torrent
  • Direct Download
  • Rate this torrent +  |  -
Sunshine Cleaning (2008) Amy Adams (DVDrip, Eng+opt NORDIC SUBS) Kuth

Free and Direct Download with Usenet.nl 300GB+ free


Torrent info

Name:Sunshine Cleaning (2008) Amy Adams (DVDrip, Eng+opt NORDIC SUBS) Kuth

Total Size: 700.43 MB

Magnet: Magnet Link

Seeds: 0

Leechers: 0

Stream: Watch Online @ Movie4u

Last Updated: 2015-09-20 14:27:51 (Update Now)

Torrent added: 2009-08-28 14:35:43





Torrent Files List


Info about this release.txt (Size: 700.43 MB) (Files: 9)

 Info about this release.txt

4.47 KB

 Sunshine Cleaning (2008) Amy Adams (DVDrip, opt.NORDIC SUBS)_Kuth.avi

697.02 MB

 Torrent downloaded from Demonoid.com.txt

0.05 KB

 ZZ-Optional subtitles

  Danish.rar

658.35 KB

  Finnish.rar

712.38 KB

  Icelandic.rar

841.19 KB

  Norwegian.rar

679.45 KB

  Notes on subtitle files and burning of discs.txt

2.57 KB

  Swedish.rar

595.00 KB
 

tracker

leech seeds
 

Torrent description

http://www.imdb.com/title/tt0862846/

With Emily Blunt, Steve Zahn and Alan Arkin.

Optional subtitles in separate idx/sub files (Work in Windows Media Player etc., see enclosed Note): Danish, Finnish, Icelandic, Norwegian, Swedish.

Charming comedy about two sisters who start a cleaning agency for gory crime scenes.

Widescreen DVDrip XviD 2-pass 720x288, great stereo sound AC3.
Runs well in both my standalone DivX players.

Format/Info : Audio Video Interleave
File size : 697 MiB
Duration : 1h 27mn
Overal bit rate : 1114 Kbps

Video
Format : MPEG-4 Visual
Format profile : Streaming [email protected]
Format settings, BVOP : Yes
Format settings, QPel : No
Format settings, GMC : No warppoints
Format settings, Matrix : Default
Muxing mode : Packet Bitstream
Codec ID : XVID
Codec ID/Hint : XviD
Duration : 1h 27mn
Bit rate : 976 Kbps
Width : 720 pixels
Height : 288 pixels
Display aspect ratio : 2.500
Frame rate : 25.000 fps
Resolution : 8 bits
Colorimetry : 4:2:0
Scan type : Progressive
Bits/(Pixel*Frame) : 0.188
Stream size : 611 MiB
Writing library : XviD 1.2.0.dev47 (UTC 2006-11-01)

Audio
Format : MPEG Audio
Format version : Version 1
Format profile : Layer 3
Codec ID : 55
Codec ID/Hint : MP3
Duration : 1h 27mn
Bit rate mode : Constant
Bit rate : 128 Kbps
Minimum bit rate : 128 Kbps
Channel(s) : 2 channels
Sampling rate : 48.0 KHz
Resolution : 16 bits
Stream size : 80.1 MiB
Writing library : LAME3.97
Encoding settings : CBR

Source: PAL retail (note that PAL/NTSC will give no problems for avi files).

Have a look at my other torrents with optional multisubs at
http://thepiratebay.org/user/Kuthumi/

related torrents

Torrent name

health leech seeds Size
 

comments (0)

Main Menu