Mystery

In the Electric Mist 2009 DVDRIP ZEKTORM

  • Download 5x Faster
  • Download torrent
  • Direct Download
  • Rate this torrent +  |  -
In the Electric Mist 2009 DVDRIP ZEKTORM

Free and Direct Download with Usenet 300GB+ free


Torrent info

Name:In the Electric Mist 2009 DVDRIP ZEKTORM

Total Size: 709.57 MB

Magnet: Magnet Link

Seeds: 0

Leechers: 0

Stream: Watch Online @ Movie4u

Last Updated: 2015-10-22 10:31:23 (Update Now)

Torrent added: 2009-08-28 13:37:21




Torrent Files List


In.the.Electric.Mist.2009.DVDRIP-ZEKTORM.mp4 (Size: 709.57 MB) (Files: 4)

 In.the.Electric.Mist.2009.DVDRIP-ZEKTORM.mp4

699.87 MB

 READ.hlp

12.79 KB

 Subs

  In.the.Electric.Mist.2009.DVDRIP-ZEKTORM.idx

125.71 KB

  In.the.Electric.Mist.2009.DVDRIP-ZEKTORM.sub

9.56 MB
 

Announce URL:

Torrent description

Title : In the Electric Mist
Year : 2009
Genre : Drama | Mystery
iMDB URL : http://www.imdb.com/title/tt0910905/
Awards : 1 nomination

Complete name : In.the.Electric.Mist.2009.DVDRIP-ZEKTORM.mp4
Format : MPEG-4
Format profile : Base Media
Codec ID : isom
File size : 700 MiB
Duration : 1h 42mn
Overall bit rate : 956 Kbps
Subtitles : English, Spanish (Format: VobSub)
Source : DVD NTSC
Encoded date : UTC 2009-02-21 16:49:11

Video
Format : AVC
Format/Info : Advanced Video Codec
Format profile : [email protected]
Format settings, CABAC : Yes
Format settings, ReFrames : 10 frames
Codec ID : avc1
Codec ID/Info : Advanced Video Coding
Duration : 1h 42mn
Bit rate mode : Variable
Bit rate : 880 Kbps
Maximum bit rate : 6459 Kbps
Width : 704 pixels
Height : 368 pixels
Display aspect ratio : 2.35
Frame rate mode : Constant
Frame rate : 23.976 fps
Resolution : 24 bits
Colorimetry : 4:2:0
Scan type : Progressive
Bits/(Pixel*Frame) : 0.142
Stream size : 644 MiB (92%)
Title : Video
Writing library : x264 core 60 r900 a9af942

Audio
Format : AAC
Format/Info : Advanced Audio Codec
Format version : Version 4
Format profile : LC
Format settings, SBR : Yes
Format settings, PS : No
Codec ID : 40
Duration : 1h 42mn
Bit rate mode : Variable
Bit rate : 72.0 Kbps
Maximum bit rate : 104 Kbps
Channel(s) : 2 channels
Channel positions : L R
Sampling rate : 48.0 KHz
Resolution : 16 bits
Stream size : 53.5 MiB (8%)
Title : English
Language : English

Notes : Convert to DVD with Nero

related torrents

Torrent name

health leech seeds Size
 

comments (0)

Main Menu