Mystery

Harry Potter and the Goblet of Fire(2005)Hindi VCDRip XviD ~ Smeet

  • Download 5x Faster
  • Download torrent
  • Direct Download
  • Rate this torrent +  |  -
Harry Potter and the Goblet of Fire(2005)Hindi VCDRip XviD ~ Smeet

Free and Direct Download with Usenet.nl 300GB+ free


Torrent info

Name:Harry Potter and the Goblet of Fire(2005)Hindi VCDRip XviD ~ Smeet

Total Size: 797.62 MB

Magnet: Magnet Link

Seeds: 0

Leechers: 0

Stream: Watch Online @ Movie4u

Last Updated: 2016-01-30 09:07:28 (Update Now)

Torrent added: 2009-08-28 13:33:56





Torrent Files List


Harry Potter and the Goblet of Fire(2005)Hindi-VCDRip-XviD ~ Smeet.avi (Size: 797.62 MB) (Files: 2)

 Harry Potter and the Goblet of Fire(2005)Hindi-VCDRip-XviD ~ Smeet.avi

797.61 MB

 smeet.nfo

6.94 KB
 

tracker

leech seeds
 

Torrent description


################## TM
##^^^^^^^^^^^^^^^^####
############## #^^^^^^^^^^^^^^^^^^^##
###### #### #########^^^^^# #^^^^^#########^^^^^#
###### ####### ###########^^^# #^^^^^^^^^^^^^#^^^^^#
####### ####### ############^^## #^^^^^^^^^^^^^#^^^^^#
################################# ############^^^###^^^^^^^^^^^^^#^^^^^#
############################################^#^^#^^^^^^^^^^^^^^^^#^^^^^#
#####################################^^^^^^^^#^^#########^^^#######^^^^#####
####################################^^^^^^^^^##^^^^^^^^^##^^#^^^^^^^^^^^^^^##
####################################^^^^^^^^^^###^^^^^^^^#^^#^^^^^^^^^^^^^^^##
######################### ##########^^^^^####^^##^^^^^^^^#^^#^^^^^^^^^^^^^^^##
####################################^########^^#^#########^^######^^^^^######
#############################################^^#^#^^^^^^^^^^^^^^^#^^^^^#
##############################################^#^#^^^^^^^^^^^^^^^#^^^^^#
##############################################^#^#^^^^^^^^^^^^^^^#^^^^^#
##################################^^^^^^^^^^#^#^^^^^^^^^^^^^^^#^^^^^#
############################################^^^#^##^^^^^^^^^^^^^^#^^^^^#
##############################################^#^^^###^^^^^^^^^^^#^^^^^#
#################################################^^^^#^^^^^^^^^^^#^^^^^#
###############################################^######^^^^^^^^^^^#^^^^^#
###################### ###### ##############^^^^^^^^^^^########^^^^^#
###################### ###### ##############^^##^^^^^^^# #^^^^^^#
###################### ###### ##################^^^^^^^# #^^^^^^#
############## ############### ######^^# ########
############## ############### ###
#############
MEANS QUALITY

=======================================================
= Harry Potter and the Goblet of Fire (2005) =
=======================================================

|##############################################################################|
| |
|GENERAL INFORMATION |
|=================== |
|Format : AVI |
|Format/Info : Audio Video Interleave |
|Format profile : OpenDML |
|File size : 798 MiB |
|Duration : 2h 31mn |
|Overall bit rate : 736 Kbps |
|Language : Hindi Source: DVD |
|SUBTITLE : No |
|GENRE : Adventure | Family | Fantasy | Mystery |
|IMDB LINK : http://www.imdb.com/title/tt0330373/ |
|IMDB RATING : 7.6/10 |
|RIPPER : SMEET |
|##############################################################################|

|##############################################################################|
| |
|Video |
|Format : MPEG-4 Visual |
|Format settings, Matrix : Custom |
|Codec ID : XVID |
|Codec ID/Hint : XviD |
|Duration : 2h 31mn |
|Width : 608 pixels |
|Height : 464 pixels |
|Display aspect ratio : 4/3 |
|Frame rate : 25.000 fps |
|Resolution : 24 bits |
|Colorimetry : 4:2:0 |
|Scan type : Progressive |
|Bits/(Pixel*Frame) : 0.090 |
|Stream size : 688 MiB (86%) |
|Writing library : XviD 1.1.2 (UTC 2006-11-01) rter. |
|##############################################################################|
|Audio |
|Format : MPEG Audio |
|Format version : Version 1 |
|Format profile : Layer 3 |
|Codec ID : 55 |
|Codec ID/Hint : MP3 |
|Duration : 2h 31mn |
|Bit rate mode : Variable |
|Bit rate : 91.0 Kbps |
|Nominal bit rate : 96.0 Kbps |
|Channel(s) : 2 channels |
|Sampling rate : 32.0 KHz |
|Resolution : 16 bits |
|Stream size : 98.5 MiB (12%) |
|Alignment : Aligned on interleaves |
|Interleave, duration : 36 ms (0.90 video frame) |
|Interleave, preload duration : 462 ms |
|Writing library : LAME3.97 |
|Encoding settings : -m j -V 4 -q 2 -lowpass 15.1 --abr 96 |
|##############################################################################|
www.AhaShare.Com

related torrents

Torrent name

health leech seeds Size
 

comments (0)

Main Menu