Mystery

CYPHER DVDRiP XViD SB0 torrent [twistedtorrents com]

  • Download 5x Faster
  • Download torrent
  • Direct Download
  • Rate this torrent +  |  -
CYPHER DVDRiP XViD SB0 torrent [twistedtorrents com]

Free and Direct Download with Usenet 300GB+ free


Torrent info

Name:CYPHER DVDRiP XViD SB0 torrent [twistedtorrents com]

Total Size: 706.79 MB

Magnet: Magnet Link

Seeds: 0

Leechers: 0

Stream: Watch Online @ Movie4u

Last Updated: 2010-09-24 05:35:25 (Update Now)

Torrent added: 2009-08-28 13:20:56




Torrent Files List


CYPHER DVDRiP XViD SB0.nfo (Size: 706.79 MB) (Files: 52)

 CYPHER DVDRiP XViD SB0.nfo

4.41 KB

 Cypher DVDRiP XViD SB0.r00

14.31 MB

 Cypher DVDRiP XViD SB0.r01

14.31 MB

 Cypher DVDRiP XViD SB0.r02

14.31 MB

 Cypher DVDRiP XViD SB0.r03

14.31 MB

 Cypher DVDRiP XViD SB0.r04

14.31 MB

 Cypher DVDRiP XViD SB0.r05

14.31 MB

 Cypher DVDRiP XViD SB0.r06

14.31 MB

 Cypher DVDRiP XViD SB0.r07

14.31 MB

 Cypher DVDRiP XViD SB0.r08

14.31 MB

 Cypher DVDRiP XViD SB0.r09

14.31 MB

 Cypher DVDRiP XViD SB0.r10

14.31 MB

 Cypher DVDRiP XViD SB0.r11

14.31 MB

 Cypher DVDRiP XViD SB0.r12

14.31 MB

 Cypher DVDRiP XViD SB0.r13

14.31 MB

 Cypher DVDRiP XViD SB0.r14

14.31 MB

 Cypher DVDRiP XViD SB0.r15

14.31 MB

 Cypher DVDRiP XViD SB0.r16

14.31 MB

 Cypher DVDRiP XViD SB0.r17

14.31 MB

 Cypher DVDRiP XViD SB0.r18

14.31 MB

 Cypher DVDRiP XViD SB0.r19

14.31 MB

 Cypher DVDRiP XViD SB0.r20

14.31 MB

 Cypher DVDRiP XViD SB0.r21

14.31 MB

 Cypher DVDRiP XViD SB0.r22

14.31 MB

 Cypher DVDRiP XViD SB0.r23

14.31 MB

 Cypher DVDRiP XViD SB0.r24

14.31 MB

 Cypher DVDRiP XViD SB0.r25

14.31 MB

 Cypher DVDRiP XViD SB0.r26

14.31 MB

 Cypher DVDRiP XViD SB0.r27

14.31 MB

 Cypher DVDRiP XViD SB0.r28

14.31 MB

 Cypher DVDRiP XViD SB0.r29

14.31 MB

 Cypher DVDRiP XViD SB0.r30

14.31 MB

 Cypher DVDRiP XViD SB0.r31

14.31 MB

 Cypher DVDRiP XViD SB0.r32

14.31 MB

 Cypher DVDRiP XViD SB0.r33

14.31 MB

 Cypher DVDRiP XViD SB0.r34

14.31 MB

 Cypher DVDRiP XViD SB0.r35

14.31 MB

 Cypher DVDRiP XViD SB0.r36

14.31 MB

 Cypher DVDRiP XViD SB0.r37

14.31 MB

 Cypher DVDRiP XViD SB0.r38

14.31 MB

 Cypher DVDRiP XViD SB0.r39

14.31 MB

 Cypher DVDRiP XViD SB0.r40

14.31 MB

 Cypher DVDRiP XViD SB0.r41

14.31 MB

 Cypher DVDRiP XViD SB0.r42

14.31 MB

 Cypher DVDRiP XViD SB0.r43

14.31 MB

 Cypher DVDRiP XViD SB0.r44

14.31 MB

 Cypher DVDRiP XViD SB0.r45

14.31 MB

 Cypher DVDRiP XViD SB0.r46

14.31 MB

 Cypher DVDRiP XViD SB0.r47

14.31 MB

 Cypher DVDRiP XViD SB0.r48

5.83 MB

 Cypher DVDRiP XViD SB0.rar

14.31 MB

 Cypher DVDRiP XViD SB0.sfv

5.02 KB
 

Announce URL: http://twistedtorrents.com/announce.php?passkey=tssespecialtorrentv1byxamsep2007

Torrent description

*******************************************************************************
Cypher DVDRiP XViD SB0
*******************************************************************************

-------------------------------------------------------------------------------
General Information
-------------------------------------------------------------------------------
Type.................: Movie



Movie Information....: http://www.imdb.com/title/tt0284978/

-------------------------------------------------------------------------------
Post Information
-------------------------------------------------------------------------------
Posted by............: SB0

-------------------------------------------------------------------------------
Release Notes
-------------------------------------------------------------------------------
General
Complete name : Cypher DVDRiP XViD SB0.avi
Format : AVI
Format/Info : Audio Video Interleave
File size : 700 MiB
Duration : 1h 31mn
Overall bit rate : 1 069 Kbps
Writing application : VirtualDubMod 1.5.4.1 (build 2178/release)
Writing library : VirtualDubMod build 2178/release

Video
Format : MPEG-4 Visual
Format profile : Streaming Video@L1
Format settings, BVOP : Yes
Format settings, QPel : No
Format settings, GMC : No warppoints
Format settings, Matrix : Custom
Codec ID : XVID
Codec ID/Hint : XviD
Duration : 1h 31mn
Bit rate : 954 Kbps
Width : 640 pixels
Height : 368 pixels
Display aspect ratio : 16/9
Frame rate : 25.000 fps
Resolution : 24 bits
Colorimetry : 4:2:0
Scan type : Progressive
Bits/(Pixel*Frame) : 0.162
Stream size : 624 MiB (89%)
Writing library : XviD 1.2.1 (UTC 2008-12-04)

Audio
Format : MPEG Audio
Format version : Version 1
Format profile : Layer 3
Codec ID : 55
Codec ID/Hint : MP3
Duration : 1h 31mn
Bit rate mode : Variable
Bit rate : 103 Kbps
Nominal bit rate : 112 Kbps
Channel(s) : 2 channels
Sampling rate : 44.1 KHz
Resolution : 16 bits
Stream size : 67.2 MiB (10%)
Alignment : Aligned on interleaves
Interleave, duration : 26 ms (0.65 video frame)
Interleave, preload duration : 198 ms
Writing library : LAME3.98r
Encoding settings : -m j -V 4 -q 2 -lowpass 15.6 --abr 112

Hoping for a more exciting life than the suburban drawl he currently inhabits,
nerdy salary man Morgan Sullivan takes a job as an industrial spy at Digicorp, a
global computer corporation. Digicorp assigns him the duty of flying to various
conventions around America, recording the speeches that are made. But when
Sullivan meets a mysterious woman he begins to realize that his job may not be
what it seems, as he descends into a dark underworld of brainwashing and
struggles to maintain his own identity.

Cast
(Cast overview, first billed only)

Jeremy Northam ... Morgan Sullivan

Lucy Liu ... Rita Foster
Nigel Bennett ... Finster

Timothy Webber ... Callaway

David Hewlett ... Virgil C. Dunn

Kari Matchett ... Diane

Kristina Nicoll ... Amy

Joseph Scoren ... Digicorp Technician #1
Stephen Brown ... Digicorp Technician #2

Arnold Pinnock ... Pilot In Mensroom
Jocelyn Snowdon ... Stewardess to Buffalo

Boyd Banks ... Fred Garfield
Steve Jackson ... Waiter Buffalo
Dan Duran ... Buffalo Speaker #1

Enjoy As Always...
SB0



-------------------------------------------------------------------------------

-------------------------------------------------------------------------------

related torrents

Torrent name

health leech seeds Size
 

comments (0)

Main Menu