Mystery

Body Double 1984 DVDRIP ZEKTORM

  • Download 5x Faster
  • Download torrent
  • Direct Download
  • Rate this torrent +  |  -
Body Double 1984 DVDRIP ZEKTORM

Anonymous and free Direct Download 300GB+


Torrent info

Name:Body Double 1984 DVDRIP ZEKTORM

Total Size: 766.51 MB

Magnet: Magnet Link

Seeds: 0

Leechers: 0

Stream: Watch Online @ Movie4u

Last Updated: 0000-00-00 00:00:00 (Update Now)

Torrent added: 2009-08-28 13:12:40



VPN For Torrents

Torrent Files List


Body.Double.1984.DVDRIP-ZEKTORM.mp4 (Size: 766.51 MB) (Files: 4)

 Body.Double.1984.DVDRIP-ZEKTORM.mp4

700.23 MB

 READ.hlp

13.25 KB

 Subs

  Body.Double.1984.DVDRIP-ZEKTORM.idx

652.47 KB

  Body.Double.1984.DVDRIP-ZEKTORM.sub

65.63 MB
 

Announce URL:

Torrent description

Title : Body Double
Year : 1984
Genre : Drama | Mystery | Thriller
iMDB Rate : User Rating: 6.4/10 7,657 votes
iMDB URL : http://www.imdb.com/title/tt0086984/
Awards : Nominated for Golden Globe. Another 1 win & 1 nomination

Complete name : Body.Double.1984.DVDRIP-ZEKTORM.mp4
Format : MPEG-4
Format profile : Base Media
Codec ID : isom
File size : 700 MiB
Duration : 1h 49mn
Overall bit rate : 893 Kbps
Subtitles : English, Spanish, French, Deutsch, Dutch, Svenska,
Norsk, Dansk, Finnish, Portuguese, Hebrew, Polish, Greek,
Czech, Turkish, Hungarian, Islenska, Hindi, Italian (Format: VobSub)
Source : DVD PAL
Encoded date : UTC 2009-02-06 20:25:11

Video
Format : AVC
Format/Info : Advanced Video Codec
Format profile : [email protected]
Format settings, CABAC : Yes
Format settings, ReFrames : 10 frames
Codec ID : avc1
Codec ID/Info : Advanced Video Coding
Duration : 1h 49mn
Bit rate mode : Variable
Bit rate : 802 Kbps
Maximum bit rate : 3 802 Kbps
Width : 704 pixels
Height : 528 pixels
Display aspect ratio : 1.939
Frame rate mode : Constant
Frame rate : 25.000 fps
Resolution : 24 bits
Colorimetry : 4:2:0
Scan type : Progressive
Bits/(Pixel*Frame) : 0.086
Stream size : 629 MiB (90%)
Title : Video
Writing library : x264 core 60 r900 a9af942

Audio
Format : AAC
Format/Info : Advanced Audio Codec
Format version : Version 4
Format profile : LC
Format settings, SBR : Yes
Format settings, PS : No
Codec ID : 40
Duration : 1h 49mn
Bit rate mode : Variable
Bit rate : 88.0 Kbps
Maximum bit rate : 114 Kbps
Channel(s) : 2 channels
Channel positions : L R
Sampling rate : 48.0 KHz
Resolution : 16 bits
Stream size : 69.0 MiB (10%)
Title : English
Language : English

Notes : Convert to DVD with Nero

related torrents

Torrent name

health leech seeds Size

Body Double (1984)

4 11 862.84 MB 0
 


comments (0)

Main Menu