Other

WEST SIDE STORY 1962 A H 264 RIP BY STIG

  • Download 5x Faster
  • Download torrent
  • Direct Download
  • Rate this torrent +  |  -
WEST SIDE STORY 1962 A H 264 RIP BY STIG

Anonymous and Free Direct Download 300GB+


Torrent info

Name:WEST SIDE STORY 1962 A H 264 RIP BY STIG

Total Size: 0.98 GB

Magnet: Magnet Link

Seeds: 0

Leechers: 0

Stream: Watch Online @ Movie4u

Last Updated: 2015-09-09 13:39:55 (Update Now)

Torrent added: 2009-08-28 13:00:28



VPN For Torrents

Torrent Files List


ws story.mp4 (Size: 0.98 GB) (Files: 4)

 ws story.mp4

0.98 GB

 west_side_story_1962_ws_r1__dvd-front.jpg

858.87 KB

 west_side_story_1962_cd.jpg

270.43 KB

 Torrent downloaded from Demonoid.com.txt

0.05 KB
 

tracker

leech seeds
 

Torrent description

Amazon.co.uk Review
The winner of 10 Academy Awards, this 1961 musical by choreographer Jerome Robbins and director Robert Wise (The Sound of Music) remains irresistible. Based on a smash Broadway play updating Shakespeare's Romeo and Juliet to the 1950s era of juvenile delinquency, West Side Story stars Natalie Wood and Richard Beymer as the star-crossed lovers from different neighbourhoods--and ethnicities. The film's real selling points, however, are the highly charged and inventive song-and-dance numbers, the passionate ballads, the moody sets, colourful support from Rita Moreno, and the sheer accomplishment of Hollywood talent and technology producing a film so stirring. Leonard Bernstein and Stephen Sondheim wrote the score. --Tom Keogh

Amazon.co.uk Review
West Side Story marked a small revolution in the history of the Hollywood musical when it was released in 1961. Enriched by Leonard Bernstein's marvellously brassy, challenging score--as redolent of the place as anything Gershwin ever wrote--the location shooting and aerial views of the Manhattan grid made New York a gritty backdrop to this modern interpretation of Romeo and Juliet.

The film rightly became an instant classic which won ten Oscars and brought some of the greatest numbers in the era of the modern musical to a global audience. Everything gels, from Jerome Robbins' superlative choreography (he retains a director's credit with Robert Wise, although anxious studio bosses removed him from the film when costs started to mount), to Ernest Lehman's taught screenplay, some of Sondheim's most accessible early lyrics, and passionate, raw performances from the gang members and the lovers.

For many of the cast, including Richard Beymer as Tony and Natalie Wood as Maria, the film represents a creative climax which wouldn't be surpassed during the remainder of their distinguished careers. Rita Moreno is an outstanding Anita, even with her songs disappointingly dubbed, and George Chakiris' sinewy, arrogant Bernardo is magnetic. The whole thing still thrums with a youthful, dramatic energy that even a modern equivalent like Moulin Rouge can't match.

On the DVD: West Side Story thoroughly merits the attention to detail in this handsome Collector's Edition. The anamorphic (16:9) widescreen format reproduces the original cinema presentation, brilliantly serving the city panoramas and balletic fight scenes, as well as the softness of the love duets, while a newly processed Dolby Digital 5.1 audio track brings Bernstein's score up as if the notes were still drying on the page. Extras abound. A "Remembering" documentary features significant contributions from director Robert Wise, Richard Beymer, Russ Tamblyn and Rita Moreno. Die-hard fans will lap up the various galleries, comparisons, the original intermission music and even a complete copy of Ernest Lehman's screenplay.

Format : MPEG-4
Format profile : Base Media / Version 2
Codec ID : mp42
File size : 1 000 MiB
Duration : 2h 27mn
Overall bit rate : 949 Kbps
Encoded date : UTC 2009-07-21 18:02:48
Tagged date : UTC 2009-07-21 23:18:36
Writing application : HandBrake 0.9.3 2008112300

Video
ID : 1
Format : AVC
Format/Info : Advanced Video Codec
Format profile : [email protected]
Format settings, CABAC : Yes
Format settings, ReFrames : 3 frames
Codec ID : avc1
Codec ID/Info : Advanced Video Coding
Duration : 2h 27mn
Bit rate mode : Variable
Bit rate : 785 Kbps
Width : 712 pixels
Height : 460 pixels
Display aspect ratio : 2.2
Frame rate mode : Variable
Frame rate : 25.000 fps
Minimum frame rate : 12.500 fps
Maximum frame rate : 83.916 fps
Resolution : 24 bits
Colorimetry : 4:2:0
Scan type : Progressive
Bits/(Pixel*Frame) : 0.096
Stream size : 827 MiB (83%)
Writing library : x264 core 65

Audio
ID : 2
Format : AAC
Format/Info : Advanced Audio Codec
Format version : Version 4
Format profile : LC
Format settings, SBR : No
Codec ID : 40
Duration : 2h 27mn
Bit rate mode : Variable
Bit rate : 160 Kbps
Maximum bit rate : 233 Kbps
Channel(s) : 2 channels
Channel positions : L R
Sampling rate : 48.0 KHz
Resolution : 16 bits
Stream size : 169 MiB (17%)
Language : English
Encoded date : UTC 2009-07-21 18:02:48
Tagged date : UTC 2009-07-21 23:18:33

related torrents

Torrent name

health leech seeds Size
 


comments (0)

Main Menu