Other

The Magic Flute (1986){Motzart}[H33T][Naughty Knights]

  • Download 5x Faster
  • Download torrent
  • Direct Download
  • Rate this torrent +  |  -
The Magic Flute (1986){Motzart}[H33T][Naughty Knights]

Anonymous and Free Direct Download 300GB+


Torrent info

Name:The Magic Flute (1986){Motzart}[H33T][Naughty Knights]

Total Size: 906.11 MB

Magnet: Magnet Link

Seeds: 4

Leechers: 2

Stream: Watch Online @ Movie4u

Last Updated: 2011-03-26 14:22:25 (Update Now)

Torrent added: 2009-08-28 12:52:26



VPN For Torrents

Torrent Files List


coverflute.jpg (Size: 906.11 MB) (Files: 9)

 coverflute.jpg

4.07 MB

 details1.jpg

1.50 MB

 details2.jpg

1.68 MB

 details3.jpg

969.77 KB

 Flute Desc.txt

3.19 KB

 flute.avi

897.71 MB

 flutethumbs.jpg

207.63 KB

 Torrent_downloaded_from_Demonoid.com.txt

0.05 KB

 tracked_by_h33t_com.txt

0.02 KB
 

Announce URL: http://inferno.demonoid.com:3416/announce

Torrent description

*************************************
* IF.YOU.ENJOYED.THANK.ME.BY.SEEDING

* I.DO.NOT.ALWAYS.READ.COMMENTS

* REQUEST RESEED AT:

* http://fr33sp33k.h33t.com/ or

* http://www.h33t.com/

* Please seed, thanks.

*************************************
* name The Magic Flute {Motzart}(1986)Opera Australia

* Genre..........: Musical Opera

* Source ........: DVDrip

* Language ......: English

* Quality........: Good

* Hash ..........: A578850E0EF316B34B97AFB1357F9FE75C5E8F0F

* Tracker 1......: http://www.h33t.com:3310/announce

* Tracker 2 .....: http://inferno.demonoid.com:3416/announce

* For file details see below:
-----------------
IMDB: N/A
----------------
The Magic Flute (1986){Motzart}[H33T][Naughty Knights] preview 0
The Magic Flute (1986){Motzart}[H33T][Naughty Knights] preview 1
The Magic Flute (1986){Motzart}[H33T][Naughty Knights] preview 2
The Magic Flute (1986){Motzart}[H33T][Naughty Knights] preview 3
The Magic Flute (1986){Motzart}[H33T][Naughty Knights] preview 4

--------------
Description: Recorded Live at the Sydney Opera House in 1986, so don't expect miracles if you view on widescreen.
Note: The DVD was released in 2006, but recorded in 1986, so sound and picture quality may vary.

An innovative production which explores the classic theme of good vs evil. Radiant performances from the whole cast
enhance the magic of Motzart's lyrical score.
Featuring:
Yvonne Kenny, Gran Wilson, John Fulford, Christa Leahmann, Donald Shanks.
--------------------------------------
Details: Mediainfo log:

Format : AVI
Format/Info : Audio Video Interleave
File size : 898 MiB
Duration : 2h 40mn
Overall bit rate : 783 Kbps

Video
Format : AVC
Format/Info : Advanced Video Codec
Format profile : Main@L5.1
Format settings, CABAC : Yes
Format settings, ReFrames : 2 frames
Codec ID : H264
Duration : 2h 40mn
Bit rate : 389 Kbps
Width : 368 pixels
Height : 256 pixels
Display aspect ratio : 1.438
Frame rate : 25.000 fps
Resolution : 24 bits
Colorimetry : 4:2:0
Scan type : Progressive
Bits/(Pixel*Frame) : 0.165
Stream size : 446 MiB (50%)


Audio
Format : AC-3
Format/Info : Audio Coding 3
Codec ID : 2000
Duration : 2h 40mn
Bit rate mode : Constant
Bit rate : 384 Kbps
Channel(s) : 2 channels
Channel positions : L R
Sampling rate : 48.0 KHz
Stream size : 440 MiB (49%)
Alignment : Split accross interleaves
Interleave, duration : 40 ms (1.00 video frame)
Interleave, preload duration : 500 ms

related torrents

Torrent name

health leech seeds Size
 


comments (0)

Main Menu