Other

My Fair Lady 1964 [tt0058385]

  • Download 5x Faster
  • Download torrent
  • Direct Download
  • Rate this torrent +  |  -
My Fair Lady 1964 [tt0058385]

Download FREE And Anonymously


Torrent info

Name:My Fair Lady 1964 [tt0058385]

Total Size: 1.37 GB

Magnet: Magnet Link

Seeds: 0

Leechers: 0

Stream: Watch Full Movie @ Movie4u

Last Updated: 2015-09-01 01:40:17 (Update Now)

Torrent added: 2009-08-28 12:23:34



VPN For Torrents

Torrent Files List


MyFairLady.avi (Size: 1.37 GB) (Files: 7)

 MyFairLady.avi

1.37 GB

 MyFairLady.srt

180.07 KB

 TrustedRelease.jpg

166.33 KB

 Poster.jpg

76.41 KB

 MyFairLady.nfo

2.08 KB

 GoThruThis.nfo

0.21 KB

 Torrent downloaded from Demonoid.com.txt

0.05 KB
 

tracker

leech seeds
 

Torrent description

General
Complete name : MyFairLady.avi
Format : AVI
Format/Info : Audio Video Interleave
File size : 1.37 GiB
Duration : 2h 53mn
Overall bit rate : 1 131 Kbps
Writing application : VirtualDubMod 1.5.4.1 (build 2178/release)
Writing library : VirtualDubMod build 2178/release

Video
Format : MPEG-4 Visual
Format profile : Streaming [email protected]
Format settings, BVOP : Yes
Format settings, QPel : No
Format settings, GMC : No warppoints
Format settings, Matrix : Custom
Codec ID : XVID
Codec ID/Hint : XviD
Duration : 2h 53mn
Bit rate : 932 Kbps
Width : 608 pixels
Height : 256 pixels
Display aspect ratio : 2.35
Frame rate : 23.976 fps
Resolution : 24 bits
Colorimetry : 4:2:0
Scan type : Progressive
Bits/(Pixel*Frame) : 0.250
Stream size : 1.13 GiB (82%)
Writing library : XviD 1.2.1 (UTC 2008-12-04)

Audio
Format : MPEG Audio
Format version : Version 1
Format profile : Layer 3
Codec ID : 55
Codec ID/Hint : MP3
Duration : 2h 53mn
Bit rate mode : Constant
Bit rate : 192 Kbps
Channel(s) : 2 channels
Sampling rate : 48.0 KHz
Resolution : 16 bits
Stream size : 238 MiB (17%)
Alignment : Aligned on interleaves
Interleave, duration : 83 ms (2.00 video frames)
Interleave, preload duration : 504 ms
Language : English


Included:Subtitles, Poster.
Enjoy don't forget to seed after you download.

related torrents

Torrent name

health leech seeds Size
 


comments (0)

Main Menu

 

script data-cfasync="false" src="//d2ghscazvn398x.cloudfront.net/?cshgd=690275">