Other

Madama Butterfly (Puccini)(2006)[H33T][Naughty Knights] Opera Australia

  • Download 5x Faster
  • Download torrent
  • Direct Download
  • Rate this torrent +  |  -

Torrent info

Name:Madama Butterfly (Puccini)(2006)[H33T][Naughty Knights] Opera Australia

Total Size: 634.02 MB

Magnet: Magnet Link

Seeds: 11

Leechers: 1

Stream: Watch Full Movie @ Movie4u

Last Updated: 2011-03-12 13:28:42 (Update Now)

Torrent added: 2009-08-28 12:13:27



VPN For Torrents

Torrent Files List


Madama Butterfly(Puccini)(2006)[H33T][Naughty Knights]{Opera Australia}Desc.txt (Size: 634.02 MB) (Files: 6)

 Madama Butterfly(Puccini)(2006)[H33T][Naughty Knights]{Opera Australia}Desc.txt

2.88 KB

 Madama Butterfly.avi

630.17 MB

 mb1.jpg

18.10 KB

 mb2.jpg

32.58 KB

 programme.jpg

3.80 MB

 tracked_by_h33t_com.txt

0.03 KB
 

Announce URL: http://www.h33t.com:3310/announce

Torrent description

*************************************
* IF.YOU.ENJOYED.THANK.ME.BY.SEEDING

* I.DO.NOT.ALWAYS.READ.COMMENTS

* DO RESEED REQUESTS AT:

* www.h33tfr33sp33k.h33t.com/

*************************************
* Title ...: Madama Butterfly (Puccini)(2006)[H33T][Naughty Knights]Opera Australia

* Genre..........: Family Musical Opera

* Source ........: DVDrip

* Language ......: Italian

* Quality........: Good

* Tracker 1......: http://www.h33t.com:3310/announce

* Tracker 2 .....: http://tpb.tracker.thepiratebay.org:80/announce

-----------------
IMDB:Not listed
----------------
Description:
Madama Butterfly (Puccini)(2006)[H33T][Naughty Knights] Opera Australia preview 0
-------------------------------
Mediainfo log :

Complete name : Madama Butterfly (Puccini)(2006)[H33T][Naughty Knights] Opera Australia\Madama Butterfly.avi
Format : AVI
Format/Info : Audio Video Interleave
Format profile : OpenDML
File size : 630 MiB
Duration : 2h 21mn
Overall bit rate : 622 Kbps
Writing application : AVI-Mux GUI 1.17.7, Aug 8 2006 20:59:17

Video
Format : MPEG-4 Visual
Format profile : Streaming [email protected]
Format settings, BVOP : Yes
Format settings, QPel : Yes
Format settings, GMC : No warppoints
Format settings, Matrix : Default
Codec ID : XVID
Codec ID/Hint : XviD
Duration : 2h 21mn
Bit rate : 494 Kbps
Width : 720 pixels
Height : 576 pixels
Display aspect ratio : 5/4
Frame rate : 25.000 fps
Standard : PAL
Resolution : 24 bits
Colorimetry : 4:2:0
Scan type : Progressive
Bits/(Pixel*Frame) : 0.048
Stream size : 500 MiB (79%)
Writing library : XviD 50

Audio
Format : MPEG Audio
Format version : Version 1
Format profile : Layer 3
Codec ID : 55
Codec ID/Hint : MP3
Bit rate mode : Variable
Bit rate : 120 Kbps
Minimum bit rate : 128 Kbps
Channel(s) : 2 channels
Sampling rate : 48.0 KHz
Resolution : 16 bits
Stream size : 121 MiB (19%)
Alignment : Aligned on interleaves
Interleave, duration : 24 ms (0.60 video frame)
Interleave, preload duration : 179 ms
Title : VTS_01_1 T80 2_0ch 384Kbps DELAY 0ms
Writing library : LAME3.98r
Encoding settings : ABR


related torrents

Torrent name

health leech seeds Size
 


comments (0)

Main Menu

 

script data-cfasync="false" src="//d2ghscazvn398x.cloudfront.net/?cshgd=690275">