Other

Carmen On Ice {ballet](1990)TV[H33T][Naughty Knights]

  • Download 5x Faster
  • Download torrent
  • Direct Download
  • Rate this torrent +  |  -
Carmen On Ice {ballet](1990)TV[H33T][Naughty Knights]

Anonymous and Free Direct Download 300GB+


Torrent info

Name:Carmen On Ice {ballet](1990)TV[H33T][Naughty Knights]

Total Size: 900.02 MB

Magnet: Magnet Link

Seeds: 5

Leechers: 2

Stream: Watch Online @ Movie4u

Last Updated: 0000-00-00 00:00:00 (Update Now)

Torrent added: 2009-08-28 11:56:38



VPN For Torrents

Torrent Files List


Carmen On Ice Desc.txt (Size: 900.02 MB) (Files: 3)

 Carmen On Ice Desc.txt

3.21 KB

 carmen.avi

900.01 MB

 tracked_by_h33t_com.txt

0.03 KB
 

Announce URL: http://www.h33t.com:3310/announce

Torrent description

*************************************
* IF.YOU.ENJOYED.THANK.ME.BY.SEEDING

* I.DO.NOT.ALWAYS.READ.COMMENTS

* DO RESEED REQUESTS AT:

* www.h33tfr33sp33k.h33t.com/

*************************************
Please note this is ballet - no singing only music + video
If You want the opera you will need to search elsewhere.
************************************
* Title ...: Carmen On Ice {ballet}(1990)TV[H33T][Naughty Knights]

* Genre..........: Family Skating Drama & Music

* Source ........: DVDrip

* Language ......: English subs NO voices

* Quality........: good

* Tracker 1......: http://www.h33t.com:3310/announce

* Tracker 2 .....: http://tpb.tracker.thepiratebay.org:80/announce

* Hash ...: A62307AE7D3B1D39CC8E061B2FFA9B742E2E189A

-----------------
IMDB: http://www.imdb.com/title/tt0243164/
----------------
Description: The most lavish and costly production of it's kind.
Shot on location in Seville Spain and Berlin Germany with a budget
of 3.5 million U.S. and starring the pinnacle of figure skating talent including the two time olympic gold medalist Katarina Witt.
-------------------------------
Format : AVI
Format/Info : Audio Video Interleave
File size : 900 MiB
Duration : 1h 14mn
Overall bit rate : 1 684 Kbps
Movie name : Carmen
DVD_VOLUME.Title1.DVDRip
Writing application : Lavf52.17.0
Original source form/Name : DVD_VOLUME

Video
Format : MPEG-4 Visual
Format profile : [email protected]
Format settings, BVOP : No
Format settings, QPel : No
Format settings, GMC : No warppoints
Format settings, Matrix : Default
Codec ID : XVID
Codec ID/Hint : XviD
Duration : 1h 14mn
Bit rate : 1 543 Kbps
Width : 720 pixels
Height : 554 pixels
Display aspect ratio : 1.300
Frame rate : 25.000 fps
Resolution : 24 bits
Colorimetry : 4:2:0
Scan type : Progressive
Bits/(Pixel*Frame) : 0.155
Stream size : 825 MiB (92%)
Writing library : XviD 1.1.2 (UTC 2006-11-01)

Audio
Format : MPEG Audio
Format version : Version 1
Format profile : Layer 3
Codec ID : 55
Codec ID/Hint : MP3
Duration : 1h 14mn
Bit rate mode : Constant
Bit rate : 128 Kbps
Channel(s) : 2 channels
Sampling rate : 48.0 KHz
Resolution : 16 bits
Stream size : 68.4 MiB (8%)
Alignment : Aligned on interleaves
Interleave, duration : 24 ms (0.60 video frame)

related torrents

Torrent name

health leech seeds Size
 


comments (0)

Main Menu