Other

Can Can (1960) Frank Sinatra & Shirley MacLaine

  • Download 5x Faster
  • Download torrent
  • Direct Download
  • Rate this torrent +  |  -
Can Can (1960) Frank Sinatra & Shirley MacLaine

Free and Direct Download with Usenet.nl 300GB+ free


Torrent info

Name:Can Can (1960) Frank Sinatra & Shirley MacLaine

Total Size: 702.12 MB

Magnet: Magnet Link

Seeds: 0

Leechers: 0

Stream: Watch Online @ Movie4u

Last Updated: 2013-04-04 15:53:06 (Update Now)

Torrent added: 2009-08-28 11:56:02





Torrent Files List


Can-Can (1960) Frank Sinatra & Shirley MacLaine.avi (Size: 702.12 MB) (Files: 3)

 Can-Can (1960) Frank Sinatra & Shirley MacLaine.avi

702.11 MB

 FAQ README.txt

4.34 KB

 Torrent downloaded from Demonoid.com.txt

0.05 KB
 

Announce URL:

Torrent description


Movies : Musical : DVD Rip : English


Plot Synopsis by Paul Brenner
Cole Porter's Gay Paree musical about the introduction in Montmartre in 1896 of the notorious Can-Can dance, is brought to the screen, filtered through a Rat Pack sensibility. Shirley MacLaine stars as Simone Pistache, the perky and vivacious owner of a Parisian cafe, who, aided by her swingin' boyfriend Francois Dumais (Frank Sinatra), is trying to keep her establishment from being closed down by the Paris authorities because of Simone's insistence on treating her patrons to the Can-Can, the salacious dance outlawed by French law. Maurice Chevalier is a kindly French judge who graciously looked the other way, but another hard-nosed judge, Philippe Forrestier (Louis Jordan), turns up the heat on Simone to close her cafe. That is, until Simone turns up the heat on him, and Phillippe falls hard for Simone.

http://www.imdb.com/title/tt0053690/


Director:Walter Lang


Frank Sinatra ... François Durnais

Shirley MacLaine ... Simone Pistache

Maurice Chevalier ... Paul Barriere
Louis Jourdan ... Philipe Forrestier
Juliet Prowse ... Claudine


Video
Format : MPEG-4 Visual
Format settings, BVOP : No
Format settings, QPel : No
Format settings, GMC : No warppoints
Format settings, Matrix : Default
Codec ID : DX50
Codec ID/Hint : DivX 5
Duration : 2h 26mn
Bit rate : 605 Kbps
Width : 384 pixels
Height : 288 pixels
Display aspect ratio : 4/3
Frame rate : 23.976 fps
Resolution : 24 bits
Colorimetry : 4:2:0
Scan type : Progressive
Bits/(Pixel*Frame) : 0.228
Stream size : 634 MiB (90%)
Writing library : DivX 5.0.5 (UTC 2003-04-24)
Audio
Format : MPEG Audio
Format version : Version 2
Format profile : Layer 3
Codec ID : 55
Codec ID/Hint : MP3
Duration : 2h 26mn
Bit rate mode : Constant
Bit rate : 56.0 Kbps
Channel(s) : 2 channels
Sampling rate : 24.0 KHz
Resolution : 16 bits
Stream size : 58.7 MiB (8%)
Alignment : Split accross interleaves
Interleave, duration : 42 ms (1.00 video frame)
Interleave, preload duration : 500 ms

related torrents

Torrent name

health leech seeds Size
 

comments (0)

Main Menu