Other

WALT DISNEYS HIGH S CHOOL MUSICAL 3[SENIOR YEAR] 2009 XVID[DVDRIP][ENG] KIDZCORNER&J T R

  • Download 5x Faster
  • Download torrent
  • Direct Download
  • Rate this torrent +  |  -

Torrent info

Name: WALT DISNEYS HIGH S CHOOL MUSICAL 3[SENIOR YEAR] 2009 XVID[DVDRIP][ENG] KIDZCORNER&J T R

Total Size: 1.05 GB

Magnet: Magnet Link

Seeds: 3

Leechers: 4

Stream: Watch Online @ Movie4u

Last Updated: 2010-12-05 01:08:50 (Update Now)

Torrent added: 2009-08-28 11:43:54





Torrent Files List


HS30EUW1 (Size: 1.05 GB) (Files: 6)

 HS30EUW1

  TITLE01.avi

1.05 GB

 517NkdooLcL._SL500_AA240_.jpg

18.49 KB

 High_School_Musical_3_R2_Custom-[cdcovers_cc]-cd1.jpg

270.04 KB

 High_School_Musical_3_R2_Custom-[cdcovers_cc]-front.jpg

1.32 MB

 Torrent downloaded from Demonoid.com.txt

0.05 KB

 Tracked by moviesb4time.biz.txt

1.35 KB
 

Announce URL: http://inferno.demonoid.com:3407/announce

Torrent description

DVD Description
High School Musical 3: Senior Year finds the East High School gang facing new challenges as they prepare to graduate from high school and head off in different directions.

With Troy and Chad both offered basketball scholarships
to college and Gabriella invited to attend Stanford University, the students all join together with the Wildcats to stage a spectacular end of year musical and plan their prom.

High School Musical 3 features incredible new music and exciting dance numbers all designed to take maximum advantage of the big screen and deliver even more high energy entertainment.


General
Complete name : C:\Users\joker\Desktop\-WALT DISNEYS HIGH S CHOOL MUSICAL 3[SENIOR YEAR]-2009-XVID[DVDRIP][ENG]-KIDZCORNER&J.T.R\HS30EUW1\TITLE01.avi
Format : AVI
Format/Info : Audio Video Interleave
File size : 1.05 GiB
Duration : 1h 51mn
Overall bit rate : 1 339 Kbps

Video
Format : MPEG-4 Visual
Format profile : [email protected]
Format settings, BVOP : No
Format settings, QPel : No
Format settings, GMC : No warppoints
Format settings, Matrix : Default
Codec ID : XVID
Codec ID/Hint : XviD
Duration : 1h 51mn
Bit rate : 1 199 Kbps
Width : 640 pixels
Height : 360 pixels
Display aspect ratio : 16/9
Frame rate : 25.000 fps
Resolution : 24 bits
Colorimetry : 4:2:0
Scan type : Progressive
Bits/(Pixel*Frame) : 0.208
Stream size : 959 MiB (90%)
Writing library : Magic0432

Audio
Format : MPEG Audio
Format version : Version 1
Format profile : Layer 3
Codec ID : 55
Codec ID/Hint : MP3
Duration : 1h 51mn
Bit rate mode : Constant
Bit rate : 128 Kbps
Channel(s) : 2 channels
Sampling rate : 44.1 KHz
Resolution : 16 bits
Stream size : 102 MiB (10%)
Alignment : Aligned on interleaves
Interleave, duration : 26 ms (0.65 video frame)
Writing library : LAME3.97



related torrents

Torrent name

health leech seeds Size
 

comments (0)

Main Menu