Comedy

La Fille De Monaco(2009)[DivX][SUBs Eng+Gr]Omifast Greek

  • Download 5x Faster
  • Download torrent
  • Direct Download
  • Rate this torrent +  |  -
La Fille De Monaco(2009)[DivX][SUBs Eng+Gr]Omifast Greek

Anonymous and Direct Download 300GB+ free


Torrent info

Name:La Fille De Monaco(2009)[DivX][SUBs Eng+Gr]Omifast Greek

Total Size: 732.45 MB

Magnet: Magnet Link

Seeds: 0

Leechers: 0

Stream: Watch Online @ Movie4u

Last Updated: 2011-01-03 14:14:32 (Update Now)

Torrent added: 2009-08-28 11:34:13




Torrent Files List


Info Documents (Size: 732.45 MB) (Files: 6)

 Info Documents

  English Info.rtf

0.66 KB

  Greek - Divx7 video.doc

1.26 KB

  Greek Info.doc

1.89 KB

  Media Info.txt

2.96 KB

 La Fille De Monaco - Sample.divx

28.32 MB

 La Fille De Monaco.divx

704.13 MB
 

Announce URL:

Torrent description

Optional English and Greek Subtitles

Use DivX7 player to turn on the subtitles on PC.
Use TV control for your television.

Movie Sample, English and Greek Info.txt Included

----------------------------------------------------------------

The Girl From Monaco (2009)
http://www.imdb.com/title/tt1139800/

A brilliant and neurotic attorney goes to Monaco to defend a famous criminal. But, instead of focusing on the case, he falls for a beautiful she-devil, who turns him into a complete wreck. Hopefully, his zealous bodyguard will step in and put everything back in order. Or will he?

Christophe Vandevelde, Francisca Viudes

----------------------------------------------------------------------

Direct Download, Photo, Trailer, and Full Synopsis in Greek and English:
www.omifast-mainmovies.blogspot.com

-----------------------------------------------------------------------

Format : DivX
Format/Info : Hack of AVI
File size : 704 MiB
Duration : 1h 30mn
Overall bit rate : 1 090 Kbps

Video
ID : 0
Format : MPEG-4 Visual
Format profile : [email protected]
Format settings, BVOP : Yes
Format settings, QPel : No
Format settings, GMC : No warppoints
Format settings, Matrix : Default (H.263)
Codec ID : XVID
Codec ID/Hint : XviD
Duration : 1h 30mn
Bit rate : 940 Kbps
Width : 576 pixels
Height : 240 pixels
Display aspect ratio : 2.40:1
Frame rate : 25.000 fps
Resolution : 24 bits
Colorimetry : 4:2:0
Scan type : Progressive
Bits/(Pixel*Frame) : 0.272
Stream size : 607 MiB (86%)
Title : Video
Writing library : XviD 1.1.2 (UTC 2006-11-01)

Audio
ID : 1
Format : MPEG Audio
Format version : Version 1
Format profile : Layer 3
Codec ID : 55
Codec ID/Hint : MP3
Duration : 1h 30mn
Bit rate mode : Variable
Bit rate : 131 Kbps
Nominal bit rate : 128 Kbps
Channel(s) : 2 channels
Sampling rate : 48.0 KHz
Resolution : 16 bits
Stream size : 84.7 MiB (12%)
Alignment : Aligned on interleaves
Interleave, duration : 24 ms (0.60 video frame)
Interleave, preload duration : 134 ms
Title : Audio
Writing library : LAME3.90.
Encoding settings : -m j -V 4 -q 2 -lowpass 17.6 --abr 128

Text #1
Format : DivX Subtitle
Codec ID : DXSB
Codec ID/Info : Subtitle in AVI from DivX networks
Width : 720 pixels
Height : 576 pixels
Resolution : 4 bits
Stream size : 2.10 MiB (0%)
Title : Subtitle - el;02

Text #2
Format : DivX Subtitle
Codec ID : DXSB
Codec ID/Info : Subtitle in AVI from DivX networks
Width : 720 pixels
Height : 576 pixels
Resolution : 4 bits
Stream size : 2.17 MiB (0%)
Title : Subtitle - en;02

!

related torrents

Torrent name

health leech seeds Size
 


comments (0)

Main Menu