Martial Arts

The Big Boss (1971) DvDRip DivX [ENG Subs] PsiKnife

  • Download 5x Faster
  • Download torrent
  • Direct Download
  • Rate this torrent +  |  -
The Big Boss (1971) DvDRip DivX [ENG Subs] PsiKnife

Free and Direct Download with Usenet.nl 300GB+ free


Torrent info

Name:The Big Boss (1971) DvDRip DivX [ENG Subs] PsiKnife

Total Size: 1.82 GB

Magnet: Magnet Link

Seeds: 0

Leechers: 0

Stream: Watch Online @ Movie4u

Last Updated: 2015-10-05 01:09:42 (Update Now)

Torrent added: 2009-08-28 11:31:43





Torrent Files List


README for Info, or Play Issues, Audio, or Subtitle Probs.txt (Size: 1.82 GB) (Files: 3)

 README for Info, or Play Issues, Audio, or Subtitle Probs.txt

4.15 KB

 The Big Boss (1971) DvDRip DivX [ENG Subs]-PsiKnife.divx

1.82 GB

 The Big Boss (1971) DvDRip DivX [ENG Subs]-PsiKnife.srt

44.65 KB
 

tracker

leech seeds
 

Torrent description

*For muffled Sound issues, try switching the track or stream audio between 1 and 2 in VLC or other media players, depending on your speaker or headphone setup. One of the two audio streams in this file is bound to be louder and more clear than the other.

This is a DivX re-encode of the 6.85 Gig DVD+DL NTSC Rip of The Big Boss by TEAM APEX, from their 45 gig release 'Bruce Lee Ultimate Fully Remastered DVD Collection'.

If you plan on watching this on a standalone DVD player, you'll need a DivX compatible player that can also read .srt files.

For the noobers that can't get the subs to work or this movie to even play, you need to first install VLC media player- found here: http://www.videolan.org/vlc/ , then you need to install DivX codec - found here: http://www.divx.com/
Then Open VLC and go to Settings, Preferences, click the Video '+' mark and highlight the word 'Subtitles' in the dropdown under Video. Now where it says 'Use Subtitle File' - Browse and find the .srt in The Big Boss folder named: The Big Boss (1971) DvDRip DivX [ENG Subs]-PsiKnife.divx.srt
Check Autodetect Sub-File here as well. Then click Save, and launch the .divx movie in VLC.

If for whatever reason you're still having problems with the .srt subtitles not showing up, you can physically drag the .srt file into the movie while it's playing, or rename the file extension .srt to .sub, or at worst, as last resort, use another type of media player. The DivX Player that came with your DivX codec should be able to play the movie fine as well as auto-detect the .srt subtitles. The KMPLayer is also very good and can be found here:


*Thanks to mistertpitydafoo for his tips and suggestions on encoding quality DivX media*

- PsiKnife_KFT

------------------------------------
File Info:


The Big Boss (1971) DvDRip DivX [ENG Subs]-PsiKnife.divx


Format : DivX
Format/Info : Hack of AVI
File size : 1.82 GiB
Duration : 1h 39mn
Overall bit rate : 2610 Kbps
Video
Format : MPEG-4 Visual
Format settings, BVOP : Yes
Format settings, QPel : No
Format settings, GMC : No warppoints
Format settings, Matrix : Default
Muxing mode : Packet Bitstream
Codec ID : DX50
Codec ID/Hint : DivX 5
Duration : 1h 39mn
Bit rate : 1950 Kbps
Width : 720 pixels
Height : 480 pixels
Display aspect ratio : 4.615
Frame rate : 29.970 fps
Standard : NTSC
Resolution : 8 bits
Colorimetry : 4:2:0
Scan type : Progressive
Bits/(Pixel*Frame) : 0.188
Stream size : 1.36 GiB (75%)
Title : Video
Writing library : DivX 2151
Audio
Format : MPEG Audio
Format version : Version 1
Format profile : Layer 3
Codec ID : 55
Codec ID/Hint : MP3
Duration : 1h 39mn
Bit rate mode : Constant
Bit rate : 320 Kbps
Channel(s) : 2 channels
Sampling rate : 48.0 KHz
Resolution : 16 bits
Stream size : 228 MiB (12%)
Alignment : Split accross interleaves
Interleave, duration : 33 ms (1.00 video frame)
Interleave, preload duration : 500 ms
Title : Audio
Audio
Format : MPEG Audio
Format version : Version 1
Format profile : Layer 3
Codec ID : 55
Codec ID/Hint : MP3
Duration : 1h 39mn
Bit rate mode : Constant
Bit rate : 320 Kbps
Channel(s) : 2 channels
Sampling rate : 48.0 KHz
Resolution : 16 bits
Stream size : 228 MiB (12%)
Alignment : Split accross interleaves
Interleave, duration : 33 ms (1.00 video frame)
Interleave, preload duration : 500 ms
Title : Audio
Text
Format : DivX Subtitle
Codec ID : DXSB
Codec ID/Info : Subtitle in AVI from DivX networks
Width : 640 pixels
Height : 480 pixels
Resolution : 4 bits
Stream size : 1.31 MiB (0%)
Title : Subtitle

related torrents

Torrent name

health leech seeds Size
 

comments (0)

Main Menu