Pop

Modern English Ricochet Days [1992 Reissue]

  • Download 5x Faster
  • Download torrent
  • Direct Download
  • Rate this torrent +  |  -
Modern English Ricochet Days [1992 Reissue]

Anonymous and Free Direct Download 300GB+


Torrent info

Name:Modern English Ricochet Days [1992 Reissue]

Total Size: 341.13 MB

Magnet: Magnet Link

Seeds: 0

Leechers: 0

Stream: Watch Online @ Movie4u

Last Updated: 2016-11-13 17:15:45 (Update Now)

Torrent added: 2009-08-28 11:07:57



VPN For Torrents

Torrent Files List


Cover (Size: 341.13 MB) (Files: 22)

 Cover

  cd.jpg

1.73 MB

  inlay (1).jpg

4.78 MB

  inlay (2).jpg

5.38 MB

  inlay (3).jpg

5.11 MB

  inlay (4).jpg

5.29 MB

  inlay (5).jpg

2.84 MB

 01 Rainbow End.flac

17.99 MB

 02 Machines.flac

36.22 MB

 03 Spinning Me Round.flac

30.58 MB

 04 Ricochet Days.flac

28.08 MB

 05 Hands Across The Sea.flac

28.47 MB

 06 Blue Waves.flac

24.15 MB

 07 Heart.flac

37.85 MB

 08 Chapter 12.flac

21.98 MB

 09 Chapter 12 (12-inch remix) [bonus track].flac

29.46 MB

 10 Ringing In The Change [bonus track].flac

20.93 MB

 11 Reflection [bonus track].flac

22.75 MB

 12 Breaking Away [bonus track].flac

17.53 MB

 Modern English - Ricochet Days [Reissue with bonus tracks]-cutted.cue

1.92 KB

 Modern English - Ricochet Days [Reissue with bonus tracks].cue

1.61 KB

 Modern English - Ricochet Days [Reissue with bonus tracks].log

2.97 KB

 Torrent_downloaded_from_Demonoid.com.txt

0.05 KB
 

tracker

leech seeds
 

Torrent description

Modern English - Ricochet Days [1992 Reissue]
Original release: 1984

1. Rainbow's End (3:07)
2. Machines (5:49)
3. Spinning Me Round (4:51)
4. Ricochet Days (5:13)
5. Hands Across The Sea (4:54)
6. Blue Waves (4:00)
7. Heart (6:58)
8. Chapter 12 (3:57)

Bonus Tracks
9. Chapter 12 (Twelve Inch Mix) (4:37)
10. Ringing In The Change (4:09)
11. Reflection (4:19)


Exact Audio Copy V0.99 prebeta 4 from 23. January 2008

Îò÷¸ò EAC îá èçâëå÷åíèè, âûïîëíåííîì 31. ÿíâàðÿ 2009, 13:17

Modern English / Ricochet Days [Reissue with bonus tracks]

Äèñêîâîä: PIONEER DVD-RW DVR-115D Adapter: 4 ID: 0

Ðåæèì ÷òåíèÿ : Äîñòîâåðíîñòü
Èñïîëüçîâàíèå òî÷íîãî ïîòîêà : Äà
Îòêëþ÷åíèå êýøà àóäèî : Äà
Èñïîëüçîâàíèå óêàçàòåëåé C2 : Íåò

Êîððåêöèÿ ñìåùåíèÿ ïðè ÷òåíèè : 48
Ñïîñîáíîñòü ÷èòàòü îáëàñòè Lead-in è Lead-out : Íåò
Çàïîëíåíèå ïðîïóùåííûõ ñýìïëîâ òèøèíîé : Äà
Óäàëåíèå áëîêîâ ñ òèøèíîé â íà÷àëå è êîíöå : Íåò
Ïðè âû÷èñëåíèÿõ CRC èñïîëüçîâàëèñü íóëåâûå ñýìïëû : Íåò
Èíòåðôåéñ : Óñòàíîâëåííûé âíåøíèé ASPI-èíòåðôåéñ

Âûõîäíîé ôîðìàò : Ïîëüçîâàòåëüñêèé êîäèðîâùèê
Âûáðàííûé áèòðåéò : 1024 kBit/s
Êà÷åñòâî : Âûñîêèé
Äîáàâëåíèå ID3-òýãà : Íåò
Óòèëèòà ñæàòèÿ : C:\\\\Program Files\\\\Exact Audio Copy\\\\Flac\\\\flac.exe
Äîïîëíèòåëüíûå ïàðàìåòðû : -T \\\"artist=%a\\\" -T \\\"title=%t\\\" -T \\\"album=%g\\\" -T \\\"date=%y\\\" -T \\\"tracknumber=%n\\\" -T \\\"genre=%m\\\" %s


TOC èçâëå÷¸ííîãî CD

Òðåê | Ñòàðò | Äëèòåëüíîñòü | Íà÷àëüíûé ñåêòîð | Êîíå÷íûé ñåêòîð
---------------------------------------------------------------------
1 | 0:00.32 | 3:06.53 | 32 | 14034
2 | 3:07.10 | 5:39.22 | 14035 | 39481
3 | 8:46.32 | 4:50.73 | 39482 | 61304
4 | 13:37.30 | 5:12.60 | 61305 | 84764
5 | 18:50.15 | 4:53.67 | 84765 | 106806
6 | 23:44.07 | 4:00.18 | 106807 | 124824
7 | 27:44.25 | 6:58.20 | 124825 | 156194
8 | 34:42.45 | 3:57.30 | 156195 | 173999
9 | 38:40.00 | 4:36.40 | 174000 | 194739
10 | 43:16.40 | 4:09.32 | 194740 | 213446
11 | 47:25.72 | 4:19.00 | 213447 | 232871
12 | 51:44.72 | 2:53.48 | 232872 | 245894


Õàðàêòåðèñòèêè äèàïàçîíà èçâëå÷åíèÿ è ñîîáùåíèÿ îá îøèáêàõ

Âûáðàííûé äèàïàçîí

Èìÿ ôàéëà D:\\\\REQUEST\\\\Modern English - 1992 - Ricochet Days [Reissue with bonus tracks]\\\\Modern English - Ricochet Days [Reissue with bonus tracks].wav

Ïèêîâûé óðîâåíü 100.0 %
Êà÷åñòâî äèàïàçîíà 100.0 %
CRC òåñòà 48A914D9
CRC êîïèè 48A914D9
Êîïèðîâàíèå... OK

Îøèáîê íå ïðîèçîøëî


AccurateRip: ñâîäêà

Òðåê 1 íåò â áàçå äàííûõ
Òðåê 2 íåò â áàçå äàííûõ
Òðåê 3 íåò â áàçå äàííûõ
Òðåê 4 íåò â áàçå äàííûõ
Òðåê 5 íåò â áàçå äàííûõ
Òðåê 6 íåò â áàçå äàííûõ
Òðåê 7 íåò â áàçå äàííûõ
Òðåê 8 íåò â áàçå äàííûõ
Òðåê 9 íåò â áàçå äàííûõ
Òðåê 10 íåò â áàçå äàííûõ
Òðåê 11 íåò â áàçå äàííûõ
Òðåê 12 íåò â áàçå äàííûõ

Íè îäíîãî òðåêà íåò â áàçå AccurateRip

Êîíåö îò÷¸òà

related torrents

Torrent name

health leech seeds Size
 


comments (0)

Main Menu