Kids

WHATS NEW SCOOBY DOO VOLUME 6[RECIPE FOR DISASTER][DVDRIP][ENG] KIDZCORNER&J T R

  • Download 5x Faster
  • Download torrent
  • Direct Download
  • Rate this torrent +  |  -

Torrent info

Name:WHATS NEW SCOOBY DOO VOLUME 6[RECIPE FOR DISASTER][DVDRIP][ENG] KIDZCORNER&J T R

Total Size: 973.30 MB

Magnet: Magnet Link

Seeds: 0

Leechers: 0

Stream: Watch Online @ Movie4u

Last Updated: 2010-12-25 04:50:08 (Update Now)

Torrent added: 2009-08-28 09:39:43



VPN For Torrents

Torrent Files List


WHATS_NEW_SCOOBY_DOO_VOL_6 (Size: 973.30 MB) (Files: 5)

 WHATS_NEW_SCOOBY_DOO_VOL_6

  TITLE01.avi

973.19 MB

 661449_DV_L_B.JPG

55.36 KB

 661449_DV_L_F.JPG

55.32 KB

 Torrent downloaded from Demonoid.com.txt

0.05 KB

 Tracked by moviesb4time.biz.txt

1.35 KB
 

Announce URL:

Torrent description

Monsters and Mysteries are the Main Ingredients in this Cartoon Collection!

Episodes:
- Recipe for Disaster.
- Large Dragon at Large.
- Uncle Scooby and Antarctica.
- New Mexico, Old Monster.
- It's All Greek to Scooby.

Shaggy and Scooby-Doo's wildest dreams come true when they win a tour of Munchville, home of the Scooby Snax factory. Enter a slimy sludge-monster made out of Scooby Snax dough and it spells out a Recipe for Disaster. The gang tries to cool off at a medieval Scottish castle, but where there's a Large Dragon at Large, there's fire. In Uncle Scooby and Antarctica, Scooby-Doo and the gang try to return Pete the Penguin to his South Pole home, but first they must unravel the bone-chilling riddle of the Finned Fiend. Then, Scooby-Doo and good buddy Shooby-Doo solve the mystery of the flying Wakoomee Beast, in New Mexico, Old Monster. Finally, they're off to Greece, where Shaggy's neck medallion becomes the Centaur of attention in It's All Greek to Scooby.

General
Complete name : C:\Users\joker\Documents\WHATS NEW SCOOBY DOO-VOLUME 6[RECIPE FOR DISASTER][DVDRIP][ENG]-KIDZCORNER&J.T.R\WHATS_NEW_SCOOBY_DOO_VOL_6\TITLE01.avi
Format : AVI
Format/Info : Audio Video Interleave
File size : 973 MiB
Duration : 1h 41mn
Overall bit rate : 1 335 Kbps

Video
Format : MPEG-4 Visual
Format profile : [email protected]
Format settings, BVOP : No
Format settings, QPel : No
Format settings, GMC : No warppoints
Format settings, Matrix : Default
Codec ID : XVID
Codec ID/Hint : XviD
Duration : 1h 41mn
Bit rate : 1 195 Kbps
Width : 640 pixels
Height : 480 pixels
Display aspect ratio : 4/3
Frame rate : 25.000 fps
Resolution : 24 bits
Colorimetry : 4:2:0
Scan type : Progressive
Bits/(Pixel*Frame) : 0.156
Stream size : 871 MiB (89%)
Writing library : Magic0432

Audio
Format : MPEG Audio
Format version : Version 1
Format profile : Layer 3
Codec ID : 55
Codec ID/Hint : MP3
Duration : 1h 41mn
Bit rate mode : Constant
Bit rate : 128 Kbps
Channel(s) : 2 channels
Sampling rate : 44.1 KHz
Resolution : 16 bits
Stream size : 93.3 MiB (10%)
Alignment : Aligned on interleaves
Interleave, duration : 26 ms (0.65 video frame)

related torrents

Torrent name

health leech seeds Size
 


comments (0)

Main Menu