Kids

WHATS NEW SCOOBY DOO VOLUME 3[LIGHTS,CAMERA,MAYEM][DVDRIP][ENG] KIDZCORNER&J T R

  • Download 5x Faster
  • Download torrent
  • Direct Download
  • Rate this torrent +  |  -


Torrent info

Name:WHATS NEW SCOOBY DOO VOLUME 3[LIGHTS,CAMERA,MAYEM][DVDRIP][ENG] KIDZCORNER&J T R

Total Size: 775.24 MB

Magnet: Magnet Link

Seeds: 0

Leechers: 1

Stream: Watch Online @ Movie4u

Last Updated: 2015-08-31 19:19:59 (Update Now)

Torrent added: 2009-08-28 09:39:32





Torrent Files List


WHATS_NEW_SCOOBY_DOO_VOL_3 (Size: 775.24 MB) (Files: 5)

 WHATS_NEW_SCOOBY_DOO_VOL_3

  TITLE01.avi

775.13 MB

 632222_DV_L_B.JPG

58.55 KB

 632222_DV_L_F.JPG

57.00 KB

 Torrent downloaded from Demonoid.com.txt

0.05 KB

 Tracked by moviesb4time.biz.txt

1.35 KB
 

tracker

leech seeds
 

Torrent description

Investigate More Fast and Funny Mystery Inc. Cases with Scooby-Doo and His Fellow Detectives!

The scares start in Hawaii, where Scooby-Doo and Shaggy are scoffing down the surf-and-turf menu until a giant serpent tries to swallow them faster than you can say She Sees A Sea Monster By The Seashore. It's no fun in Toy Scary Boo when all the toys in Happy Toyland start coming alive and wreaking havoc. The gang heads to Hollywood in Lights! Camera! Mayhem!, where a tour of Piranha Studios brings them face to face with the ghost of a legendary teen idol. Smile and say "ciao!" when the phantom-buster's travel to Italy in Pompeii and Circumstance. With a moltissimo mystery to solve, will our friends be ghoulish gladiator goners, or will their love for the Italian art and Scooby snacks save the day?

Episodes include:
She Sees a Sea Monster by the Sea Shore
Toy Scary Boo
Lights! Camera! Mayhem!
Pompeii and Circumstance


General
Complete name : C:\Users\joker\Documents\WHATS NEW SCOOBY DOO-VOLUME 3[LIGHTS,CAMERA,MAYEM][DVDRIP][ENG]-KIDZCORNER&J.T.R\WHATS_NEW_SCOOBY_DOO_VOL_3\TITLE01.avi
Format : AVI
Format/Info : Audio Video Interleave
File size : 775 MiB
Duration : 1h 21mn
Overall bit rate : 1 336 Kbps

Video
Format : MPEG-4 Visual
Format profile : [email protected]
Format settings, BVOP : No
Format settings, QPel : No
Format settings, GMC : No warppoints
Format settings, Matrix : Default
Codec ID : XVID
Codec ID/Hint : XviD
Duration : 1h 21mn
Bit rate : 1 195 Kbps
Width : 640 pixels
Height : 480 pixels
Display aspect ratio : 4/3
Frame rate : 25.000 fps
Resolution : 24 bits
Colorimetry : 4:2:0
Scan type : Progressive
Bits/(Pixel*Frame) : 0.156
Stream size : 694 MiB (89%)
Writing library : Magic0432

Audio
Format : MPEG Audio
Format version : Version 1
Format profile : Layer 3
Codec ID : 55
Codec ID/Hint : MP3
Duration : 1h 21mn
Bit rate mode : Constant
Bit rate : 128 Kbps
Channel(s) : 2 channels
Sampling rate : 44.1 KHz
Resolution : 16 bits
Stream size : 74.3 MiB (10%)
Alignment : Aligned on interleaves
Interleave, duration : 26 ms (0.65 video frame)

related torrents

Torrent name

health leech seeds Size
 

comments (0)

Main Menu