Kids

WHATS NEW SCOOBY DOO VOLUME 2[SAFARI SO GOOD][DVDRIP][ENG] KIDZCORNER&J T R

  • Download 5x Faster
  • Download torrent
  • Direct Download
  • Rate this torrent +  |  -

Torrent info

Name:WHATS NEW SCOOBY DOO VOLUME 2[SAFARI SO GOOD][DVDRIP][ENG] KIDZCORNER&J T R

Total Size: 780.43 MB

Magnet: Magnet Link

Seeds: 0

Leechers: 0

Stream: Watch Online @ Movie4u

Last Updated: 2012-08-10 21:54:45 (Update Now)

Torrent added: 2009-08-28 09:39:27



VPN For Torrents

Torrent Files List


SCOOBY_DOO_WHATS_NEW_VOLUME_2 (Size: 780.43 MB) (Files: 5)

 SCOOBY_DOO_WHATS_NEW_VOLUME_2

  TITLE01.avi

780.35 MB

 562691_DV_L_B.JPG

41.62 KB

 562691_DV_L_F.JPG

41.61 KB

 Torrent downloaded from Demonoid.com-1.txt

0.05 KB

 Tracked by moviesb4time.biz.txt

1.35 KB
 

Announce URL:

Torrent description

Scooby-Doo and the Gang Hit the Road Again!

Scooby-Doo and the gang hit the road again to solve four funnybone-chilling mysteries! Their first 'hood-dunnit' is quite a surprise when accusing eyes steer toward a trusted friend (It's Mean, It's Green, it's the Mystery Machine). Then, before Scooby-Doo can utter Riva Ras Regas, a masked magician steals the show when he becomes a phantom at a pop concert! After that, Scooby-Doo can't wait to take a Roller Ghoster Ride! at the world's most exciting extreme sports theme park ... until everything breaks down, making it an experience he'd love to forget. Finally, the gang flies off to Africa for a video animal Safari, So Good!, only to learn that - zoinks! - they're really shape-shifting jungle demons!

EPISODES INCLUDE:
It's Mean, It's Green, It's the Mystery Machine
Riva Ras Regas
Roller Ghoster Ride
Safari, So Good!


General
Complete name : C:\Users\joker\Documents\WHATS NEW SCOOBY DOO-VOLUME 2[SAFARI SO GOOD][DVDRIP][ENG]-KIDZCORNER&J.T.R\SCOOBY_DOO_WHATS_NEW_VOLUME_2\TITLE01.avi
Format : AVI
Format/Info : Audio Video Interleave
File size : 780 MiB
Duration : 1h 21mn
Overall bit rate : 1 336 Kbps

Video
Format : MPEG-4 Visual
Format profile : [email protected]
Format settings, BVOP : No
Format settings, QPel : No
Format settings, GMC : No warppoints
Format settings, Matrix : Default
Codec ID : XVID
Codec ID/Hint : XviD
Duration : 1h 21mn
Bit rate : 1 196 Kbps
Width : 640 pixels
Height : 480 pixels
Display aspect ratio : 4/3
Frame rate : 25.000 fps
Resolution : 24 bits
Colorimetry : 4:2:0
Scan type : Progressive
Bits/(Pixel*Frame) : 0.156
Stream size : 698 MiB (90%)
Writing library : Magic0432

Audio
Format : MPEG Audio
Format version : Version 1
Format profile : Layer 3
Codec ID : 55
Codec ID/Hint : MP3
Duration : 1h 21mn
Bit rate mode : Constant
Bit rate : 128 Kbps
Channel(s) : 2 channels
Sampling rate : 44.1 KHz
Resolution : 16 bits
Stream size : 74.8 MiB (10%)
Alignment : Aligned on interleaves
Interleave, duration : 26 ms (0.65 video frame)
Writing library : LAME3.97

related torrents

Torrent name

health leech seeds Size
 


comments (0)

Main Menu