Kids

WHATS NEW SCOOBY DOO VOLUME 10[GENTLEMEN START YOUR MONSTERS][DVDRIP][ENG] KIDZCORNER&J T R

  • Download 5x Faster
  • Download torrent
  • Direct Download
  • Rate this torrent +  |  -

Torrent info

Name:WHATS NEW SCOOBY DOO VOLUME 10[GENTLEMEN START YOUR MONSTERS][DVDRIP][ENG] KIDZCORNER&J T R

Total Size: 776.83 MB

Magnet: Magnet Link

Seeds: 0

Leechers: 0

Stream: Watch Online @ Movie4u

Last Updated: 2015-09-12 21:26:15 (Update Now)

Torrent added: 2009-08-28 09:39:21




Torrent Files List


WHATS_NEW_SCOOBY_DOO_VOL_10 (Size: 776.83 MB) (Files: 5)

 WHATS_NEW_SCOOBY_DOO_VOL_10

  TITLE05.avi

776.72 MB

 720012_DV_L_B.JPG

56.83 KB

 720012_DV_L_F.JPG

53.74 KB

 Torrent downloaded from Demonoid.com.txt

0.05 KB

 Tracked by moviesb4time.biz.txt

1.35 KB
 

tracker

leech seeds
 

Torrent description

this concludes the 1-10 boxset


More fast, frightening fun from Scooby-Doo and friends!

EPISODES:
Gentlemen, Start Your Monsters.
A Scooby-Doo Halloween.
A Scooby-Doo Christmas.
A Terrifying Round with A Menacing Metallic Clown.

Strap yourself in for four cross-country capers with a holiday twist! En route to Florida, Freddy runs into a real Monster Truck at a championship stock car race in Gentlemen, Start Your Monsters. It's a scream when rock band KISS plays Banning Junction's 100th Anniversary Halloween Party in A Scooby-Doo Halloween. In A Scooby-Doo Christmas, Scooby-Doo and crew set out to melt the ferocious Frosty and save the day. the scares never end at the world's biggest mini golf course
, where reigning champ Shaggy plays A Terrifying Round with a Menacing Metallic Clown ... and scores. For unlimited fun, start your DVD players now!
----------------------------

General
Complete name : C:\Users\joker\Documents\WHATS NEW SCOOBY DOO-VOLUME 10[GENTLEMEN START YOUR MONSTERS][DVDRIP][ENG]-KIDZCORNER&J.T.R\WHATS_NEW_SCOOBY_DOO_VOL_10\TITLE05.avi
Format : AVI
Format/Info : Audio Video Interleave
File size : 777 MiB
Duration : 1h 21mn
Overall bit rate : 1 327 Kbps

Video
Format : MPEG-4 Visual
Format profile : Simple@L3
Format settings, BVOP : No
Format settings, QPel : No
Format settings, GMC : No warppoints
Format settings, Matrix : Default
Codec ID : XVID
Codec ID/Hint : XviD
Duration : 1h 21mn
Bit rate : 1 186 Kbps
Width : 640 pixels
Height : 480 pixels
Display aspect ratio : 4/3
Frame rate : 25.000 fps
Resolution : 24 bits
Colorimetry : 4:2:0
Scan type : Progressive
Bits/(Pixel*Frame) : 0.154
Stream size : 695 MiB (89%)
Writing library : Magic0432

Audio
Format : MPEG Audio
Format version : Version 1
Format profile : Layer 3
Codec ID : 55
Codec ID/Hint : MP3
Duration : 1h 21mn
Bit rate mode : Constant
Bit rate : 128 Kbps
Channel(s) : 2 channels
Sampling rate : 44.1 KHz
Resolution : 16 bits
Stream size : 74.9 MiB (10%)
Alignment : Aligned on interleaves
Interleave, duration : 26 ms (0.65 video frame)


related torrents

Torrent name

health leech seeds Size
 

comments (0)

Main Menu