Kids

WHATS NEW SCOOBY DOO VOL 8[e SCREAM][DVDRIP][ENG] KIDZCORNER&J T R

  • Download 5x Faster
  • Download torrent
  • Direct Download
  • Rate this torrent +  |  -
WHATS NEW SCOOBY DOO VOL 8[e SCREAM][DVDRIP][ENG] KIDZCORNER&J T R

Free and Direct Download with Usenet.nl 300GB+ free


Torrent info

Name:WHATS NEW SCOOBY DOO VOL 8[e SCREAM][DVDRIP][ENG] KIDZCORNER&J T R

Total Size: 778.96 MB

Magnet: Magnet Link

Seeds: 0

Leechers: 0

Stream: Watch Online @ Movie4u

Last Updated: 2010-12-21 17:53:51 (Update Now)

Torrent added: 2009-08-28 09:39:16





Torrent Files List


WHATS_NEW_SCOOBY_DOO_VOLUME_8 (Size: 778.96 MB) (Files: 5)

 WHATS_NEW_SCOOBY_DOO_VOLUME_8

  TITLE01.avi

778.85 MB

 694609_DV_L_B.JPG

52.78 KB

 694609_DV_L_F.JPG

56.52 KB

 Torrent downloaded from Demonoid.com.txt

0.05 KB

 Tracked by moviesb4time.biz.txt

1.35 KB
 

Announce URL:

Torrent description

Scooby-Doo And The Gang Take A World Tour Of Mystery And Laughs!

Episodes:
E-Scream
Block-Long Hong Kong Terror
Reef Grief
Gold
Paw

Scooby-Doo and crew travel around the globe, sleuthing their way through a slew of cool capers. You'll scream for E-Scream over a video game where virtual reality produces actual chills. Then, the gang takes a Hong Kong holiday and ends up facing dragon breath in Block-Long Hong Kong Terror. Just when they thought it was safe to go back to the beach... Mystery Inc. meets music group Smashmouth while visiting Australia's Great Barrier Reef to watch Shaggy and Scooby compete in a sand castle contest in Reef Grief. Last stop: Fort Knox, Kentucky, where a monster of gold is turning soldiers into statues in Gold Paw. It's gonna take six highly-trained puppies and lots of Scooby Snax to solve this 14-carat conundrum.


General
Complete name : C:\Users\joker\Documents\WHATS NEW SCOOBY DOO-VOL 8[e SCREAM][DVDRIP][ENG]-KIDZCORNER&J.T.R\WHATS_NEW_SCOOBY_DOO_VOLUME_8\TITLE01.avi
Format : AVI
Format/Info : Audio Video Interleave
File size : 779 MiB
Duration : 1h 21mn
Overall bit rate : 1 335 Kbps

Video
Format : MPEG-4 Visual
Format profile : [email protected]
Format settings, BVOP : No
Format settings, QPel : No
Format settings, GMC : No warppoints
Format settings, Matrix : Default
Codec ID : XVID
Codec ID/Hint : XviD
Duration : 1h 21mn
Bit rate : 1 195 Kbps
Width : 640 pixels
Height : 480 pixels
Display aspect ratio : 4/3
Frame rate : 25.000 fps
Resolution : 24 bits
Colorimetry : 4:2:0
Scan type : Progressive
Bits/(Pixel*Frame) : 0.156
Stream size : 697 MiB (89%)
Writing library : Magic0432

Audio
Format : MPEG Audio
Format version : Version 1
Format profile : Layer 3
Codec ID : 55
Codec ID/Hint : MP3
Duration : 1h 21mn
Bit rate mode : Constant
Bit rate : 128 Kbps
Channel(s) : 2 channels
Sampling rate : 44.1 KHz
Resolution : 16 bits
Stream size : 74.7 MiB (10%)
Alignment : Aligned on interleaves
Interleave, duration : 26 ms (0.65 video frame)


related torrents

Torrent name

health leech seeds Size
 

comments (0)

Main Menu