Kids

WHATS NEW SCOOBY DOO VOLUME 1[SPACE [email protected] CAPE][DVDRIP][ENG] KIDZCORNER

  • Download 5x Faster
  • Download torrent
  • Direct Download
  • Rate this torrent +  |  -

Torrent info

Name:WHATS NEW SCOOBY DOO VOLUME 1[SPACE [email protected] CAPE][DVDRIP][ENG] KIDZCORNER

Total Size: 778.97 MB

Magnet: Magnet Link

Seeds: 5

Leechers: 8

Stream: Watch Online @ Movie4u

Last Updated: 0000-00-00 00:00:00 (Update Now)

Torrent added: 2009-08-28 09:39:12



VPN For Torrents

Torrent Files List


WHATS_NEW_SCOOBY_DOO_VOLUME1 (Size: 778.97 MB) (Files: 5)

 WHATS_NEW_SCOOBY_DOO_VOLUME1

  TITLE01.avi

778.89 MB

 553013_DV_L_B.JPG

40.52 KB

 553013_DV_L_F.JPG

38.95 KB

 Torrent downloaded from Demonoid.com.txt

0.05 KB

 Tracked by moviesb4time.biz.txt

1.35 KB
 

Announce URL: http://inferno.demonoid.com:3404/announce

Torrent description

VOLUME 1 OF TEN

Episodes Include:
There's No Creature Like Snow Creature
Space Ape At The Cape
3-D Struction
Big Scare In The Big City

Scooby-Doo and the world's most famous meddling kids launch their crime-busting, spook-chasing exploits into the 21st century in these four fun-filled mystery adventures.
When the contestants at a way-cool snowboading contest are suspiciously sidelines, Scooby Doo and the kids investigate - and discover the chilling fact that 'There's No Creature Like Snow Creature!' Then, there's a dino-sized mystery afoot in Costa Rica when a fearsome Gigantosaurus jumps off a movie screen and goes on the rampage of '3-D Struction!' Next, In 'Space Ape At The Cape' the gang tangles with an extra-scary extraterrestrial who's monkeying around with an important rocket launch. And there's a 'Big Scare In The Big Easy' when Mystery Inc. crew unearths spooky doings at a haunted New Orleans Cemetery!

General
Complete name : C:\Users\joker\Documents\WHATS NEW SCOOBY DOO VOLUME 1[SPACE [email protected] CAPE][DVDRIP][ENG]-KIDZCORNER\WHATS_NEW_SCOOBY_DOO_VOLUME1\TITLE01.avi
Format : AVI
Format/Info : Audio Video Interleave
File size : 779 MiB
Duration : 1h 21mn
Overall bit rate : 1 335 Kbps

Video
Format : MPEG-4 Visual
Format profile : [email protected]
Format settings, BVOP : No
Format settings, QPel : No
Format settings, GMC : No warppoints
Format settings, Matrix : Default
Codec ID : XVID
Codec ID/Hint : XviD
Duration : 1h 21mn
Bit rate : 1 195 Kbps
Width : 640 pixels
Height : 480 pixels
Display aspect ratio : 4/3
Frame rate : 25.000 fps
Resolution : 24 bits
Colorimetry : 4:2:0
Scan type : Progressive
Bits/(Pixel*Frame) : 0.156
Stream size : 697 MiB (89%)
Writing library : Magic0432

Audio
Format : MPEG Audio
Format version : Version 1
Format profile : Layer 3
Codec ID : 55
Codec ID/Hint : MP3
Duration : 1h 21mn
Bit rate mode : Constant
Bit rate : 128 Kbps
Channel(s) : 2 channels
Sampling rate : 44.1 KHz
Resolution : 16 bits
Stream size : 74.7 MiB (10%)
Alignment : Aligned on interleaves
Interleave, duration : 26 ms (0.65 video frame)
Writing library : LAME3.97

related torrents

Torrent name

health leech seeds Size
 


comments (0)

Main Menu