Kids

Veggie Tales The Pirates who Dont do Anything [Shadow] [H33t] [DivX] [Avi]

  • Download 5x Faster
  • Download torrent
  • Direct Download
  • Rate this torrent +  |  -
Veggie Tales The Pirates who Dont do Anything [Shadow] [H33t] [DivX] [Avi]

Free and Direct Download with Usenet 300GB+ free


Torrent info

Name:Veggie Tales The Pirates who Dont do Anything [Shadow] [H33t] [DivX] [Avi]

Total Size: 818.39 MB

Magnet: Magnet Link

Seeds: 5

Leechers: 1

Stream: Watch Online @ Movie4u

Last Updated: 2011-02-05 10:21:34 (Update Now)

Torrent added: 2009-08-28 09:34:47




Torrent Files List


pirates1.jpg (Size: 818.39 MB) (Files: 5)

 pirates1.jpg

46.30 KB

 pirates2.jpg

31.26 KB

 tracked_by_h33t_com.txt

0.02 KB

 Veggie Tales The Pirates who Dont do Anything [Shadow] [H33t] [DivX] [Avi].avi

818.31 MB

 Veggie Tales The Pirates who Dont do Anything [Shadow] [H33t] [DivX] [Avi].txt

5.64 KB
 

Announce URL: http://www.h33t.com:3310/announce

Torrent description

----------------------------------------------------------------------------------------------------------------
Description/TagLines
----------------------------------------------------------------------------------------------------------------

Everyone's favorite produce pals set out to seek their fortune on the open seas in this animated adventure from the folks who brought viewers Jonah: A VeggieTales Movie. Elliot, Sedgewick, and George (Larry the Cucumber, Mr. Lunt, and Pa Grape) are all busboys at the Pieces of Ate Dinner Theater, and all long for the day when they can cease cleaning tables and step into the spotlight. If Elliot could overcome his timidity, Sedgewick could muster some motivation, and George could only boost of self-confidence a bit, perhaps their dreams of starring in the big pirate show could finally come true. When a mysterious artifact known as the "Helpseeker" falls from the sky searching for three heroes to embark on a treacherous quest back to the 17th century, Elliot, Sedgewick, and George must choose between traveling back in time to rescue a royal family from a dangerous despot or spending the rest of their lives lazily lounging around on the couch. ~ Jason Buchanan, All Movie Guide



----------------------------------------------------------------------------------------------------------------
Cast
----------------------------------------------------------------------------------------------------------------



Complete Cast:
Phil Vischer - Archibald Asparagus ("Jonah"/"Twippo")/Bob the Tomato/Mr.
Tim Hodge - Khalil
Dana Anderson - Dad Asparagus
Shelby Vischer - Annie
Ron Smith - Crazy Jopponian/City Official
Mike Nawrocki - Larry the Cucumber ("Pirate Larry")/Jean Claude Pea/Cockn
Lisa Vischer - Junior Asparagus
Kristin Blegen - Laura Carrot
Jim Poole - Scooter/Townsperson/City Official




----------------------------------------------------------------------------------------------------------------
File Info
----------------------------------------------------------------------------------------------------------------

----------------------------------------------------------------------------------------------------------------
General
----------------------------------------------------------------------------------------------------------------

Complete name : Veggie Tales The Pirates who Dont do Anything [Shadow] [H33t] [DivX] [Avi].avi
Format : AVI
Format/Info : Audio Video Interleave
File size : 818 MiB
Duration : 1h 25mn
Overall bit rate : 1 340 Kbps
Writing application : Lavf51.12.1


----------------------------------------------------------------------------------------------------------------
Video
----------------------------------------------------------------------------------------------------------------

Format : MPEG-4 Visual
Format profile : [email protected]
Format settings, BVOP : No
Format settings, QPel : No
Format settings, GMC : No warppoints
Format settings, Matrix : Default
Codec ID : DX50
Codec ID/Hint : DivX 5
Duration : 1h 25mn
Bit rate : 1 199 Kbps
Width : 720 pixels
Height : 480 pixels
Display aspect ratio : 1.500
Frame rate : 23.976 fps
Standard : NTSC
Resolution : 24 bits
Colorimetry : 4:2:0
Scan type : Progressive
Bits/(Pixel*Frame) : 0.145
Stream size : 732 MiB (89%)
Writing library : Lavc51.40.4


----------------------------------------------------------------------------------------------------------------
Audio
----------------------------------------------------------------------------------------------------------------

Format : MPEG Audio
Format version : Version 1
Format profile : Layer 3
Codec ID : 55
Codec ID/Hint : MP3
Duration : 1h 25mn
Bit rate mode : Constant
Bit rate : 128 Kbps
Channel(s) : 2 channels
Sampling rate : 48.0 KHz
Resolution : 16 bits
Stream size : 78.2 MiB (10%)
Alignment : Aligned on interleaves
Interleave, duration : 24 ms (0.58 video frame)
Interleave, preload duration : 24 ms
Writing library : LAME3.97

----------------------------------------------------------------------------------------------------------------
Files Included
----------------------------------------------------------------------------------------------------------------

Veggie Tales The Pirates who Dont do Anything [Shadow] [H33t] [DivX] [Avi].avi
pirates1.jpg
pirates2.png
tracked_by_h33t_com.txt
Veggie Tales The Pirates who Dont do Anything [Shadow] [H33t] [DivX] [Avi].txt

----------------------------------------------------------------------------------------------------------------
Personal Notes
----------------------------------------------------------------------------------------------------------------

This is actualy my very first rip so the size of the file is slightly larger than I like to make it now. Still great quality tho :)

related torrents

Torrent name

health leech seeds Size
 

comments (0)

Main Menu