Kids

THE SWAN PRINCESS 2[escape from castle mountain] [DVDRIP][ENG] KIDZCORNER

  • Download 5x Faster
  • Download torrent
  • Direct Download
  • Rate this torrent +  |  -
THE SWAN PRINCESS 2[escape from castle mountain] [DVDRIP][ENG] KIDZCORNER

Free and Direct Download with Usenet.nl 300GB+ free


Torrent info

Name:THE SWAN PRINCESS 2[escape from castle mountain] [DVDRIP][ENG] KIDZCORNER

Total Size: 656.29 MB

Magnet: Magnet Link

Seeds: 0

Leechers: 0

Stream: Watch Online @ Movie4u

Last Updated: 2015-12-08 10:29:59 (Update Now)

Torrent added: 2009-08-28 09:26:13





Torrent Files List


DISC2.avi (Size: 656.29 MB) (Files: 4)

 DISC2.avi

656.26 MB

 swan princess 2.jpg

35.92 KB

 Torrent downloaded from Demonoid.com.txt

0.05 KB

 Tracked by moviesb4time.biz.txt

1.35 KB
 

tracker

leech seeds
 

Torrent description

This straight-to-video sequel to The Swan Princess concerns the kidnapping of Prince Derek's mother, a crime that lures the prince into danger himself. Princess Odette can save him--but only if she becomes a swan herself. Even given the lesser ambitions and budgets afforded direct-to-video sequels, it's hard to accept that this boxy, unexciting movie has the same director (Richard Rich) as the fine, first feature in the series. More like a Saturday-morning cartoon than a real film, this is a disappointment, though kids who couldn't care less about scale might get caught up in the story

General
Complete name : C:\Users\joker\Desktop\THE SWAN PRINCESS 2[escape from castle mountain]-[DVDRIP][ENG]-KIDZCORNER\DISC2.avi
Format : AVI
Format/Info : Audio Video Interleave
File size : 656 MiB
Duration : 1h 8mn
Overall bit rate : 1 338 Kbps

Video
Format : MPEG-4 Visual
Format profile : [email protected]
Format settings, BVOP : No
Format settings, QPel : No
Format settings, GMC : No warppoints
Format settings, Matrix : Default
Codec ID : XVID
Codec ID/Hint : XviD
Duration : 1h 8mn
Bit rate : 1 198 Kbps
Width : 640 pixels
Height : 360 pixels
Display aspect ratio : 16/9
Frame rate : 25.000 fps
Resolution : 24 bits
Colorimetry : 4:2:0
Scan type : Progressive
Bits/(Pixel*Frame) : 0.208
Stream size : 587 MiB (90%)
Writing library : Magic0432

Audio
Format : MPEG Audio
Format version : Version 1
Format profile : Layer 3
Codec ID : 55
Codec ID/Hint : MP3
Duration : 1h 8mn
Bit rate mode : Constant
Bit rate : 128 Kbps
Channel(s) : 2 channels
Sampling rate : 44.1 KHz
Resolution : 16 bits
Stream size : 62.8 MiB (10%)
Alignment : Aligned on interleaves
Interleave, duration : 26 ms (0.65 video frame)
Writing library : LAME3.97

related torrents

Torrent name

health leech seeds Size
 

comments (0)

Main Menu