Kids

THE SWAN PRINCESS 4 DISC COLLLECTION DISC 1 [DVDRIP][ENG] KIDZCORNER

  • Download 5x Faster
  • Download torrent
  • Direct Download
  • Rate this torrent +  |  -

Torrent info

Name:THE SWAN PRINCESS 4 DISC COLLLECTION DISC 1 [DVDRIP][ENG] KIDZCORNER

Total Size: 819.34 MB

Magnet: Magnet Link

Seeds: 0

Leechers: 0

Stream: Watch Online @ Movie4u

Last Updated: 2015-11-06 12:54:49 (Update Now)

Torrent added: 2009-08-28 09:26:10



VPN For Torrents

Torrent Files List


SWAN P 1 (Size: 819.34 MB) (Files: 5)

 SWAN P 1

  TITLE01.avi

819.27 MB

 boxset cover.jpg

37.08 KB

 swan princess front.jpg

37.90 KB

 Torrent downloaded from Demonoid.com.txt

0.05 KB

 Tracked by moviesb4time.biz.txt

1.35 KB
 

tracker

leech seeds
 

Torrent description

Princess Odette has been captured and transformed into a swan by the evil Rothbart. The spell can only be broken with the aid of her animal friends and her one true love.

This animated fairy tale is based on the classic story "Swan Lake". Prince Derek and Princess Odette are from two different kingdoms. As children, they are brought together by their parents each summer in hopes that they will one day marry thereby joining the two kingdoms. They grow to love one another but at the end of one summer, Princess Odette leaves Prince Derek's castle after a disagreement. As she is traveling home with her father, they are overtaken by the evil sorcerer Rothbart. Odette is captured and her father is left to die. Rothbart places a curse on Odette which transforms her into a swan. She can only return to human form when she stands in the moonlight over the lake beneath Rothbart's castle at night. During her time in captivity at the enchanted lake, she meets three animal friends, Speed the turtle, Jean-Bob the frog, and Puffin the bird. With the aid of the three creatures, Odette attempts to escape her imprisonment to return to Prince Derek who has never given up looking for her. "The Swan Princess" is a wonderful family film that parents can enjoy watching with their children. There are no unpleasant surprises involving questionable innuendos and crude launguage. The music is upbeat and works well with the animation
and the characters. This funny and charming movie about love, honor, and devotion deserves to be seen by young and old.


General
Complete name : C:\Users\joker\Desktop\THE SWAN PRINCESS -4 DISC COLLLECTION DISC 1-[DVDRIP][ENG]-KIDZCORNER\SWAN P 1\TITLE01.avi
Format : AVI
Format/Info : Audio Video Interleave
File size : 819 MiB
Duration : 1h 25mn
Overall bit rate : 1 339 Kbps

Video
Format : MPEG-4 Visual
Format profile : [email protected]
Format settings, BVOP : No
Format settings, QPel : No
Format settings, GMC : No warppoints
Format settings, Matrix : Default
Codec ID : XVID
Codec ID/Hint : XviD
Duration : 1h 25mn
Bit rate : 1 199 Kbps
Width : 640 pixels
Height : 360 pixels
Display aspect ratio : 16/9
Frame rate : 25.000 fps
Resolution : 24 bits
Colorimetry : 4:2:0
Scan type : Progressive
Bits/(Pixel*Frame) : 0.208
Stream size : 733 MiB (90%)
Writing library : Magic0432

Audio
Format : MPEG Audio
Format version : Version 1
Format profile : Layer 3
Codec ID : 55
Codec ID/Hint : MP3
Duration : 1h 25mn
Bit rate mode : Constant
Bit rate : 128 Kbps
Channel(s) : 2 channels
Sampling rate : 44.1 KHz
Resolution : 16 bits
Stream size : 78.3 MiB (10%)
Alignment : Aligned on interleaves
Interleave, duration : 26 ms (0.65 video frame)




related torrents

Torrent name

health leech seeds Size
 


comments (0)

Main Menu