Kids

THE CARE BEARS JOURNEY TO JOKE ALOT[DVDRIP][ENG] KIDZCORNER

  • Download 5x Faster
  • Download torrent
  • Direct Download
  • Rate this torrent +  |  -

Torrent info

Name:THE CARE BEARS JOURNEY TO JOKE ALOT[DVDRIP][ENG] KIDZCORNER

Total Size: 744.61 MB

Magnet: Magnet Link

Seeds: 0

Leechers: 0

Stream: Watch Full Movie @ Movie4u

Last Updated: 2014-07-19 23:11:10 (Update Now)

Torrent added: 2009-08-28 09:22:58



VPN For Torrents

Torrent Files List


CARE_BEARS_G4 (Size: 744.61 MB) (Files: 3)

 CARE_BEARS_G4

  main movie.avi

744.58 MB

 front.jpg

31.67 KB

 Torrent downloaded from Demonoid.com.txt

0.05 KB
 

Announce URL:

Torrent description

A brand new CGI animated Care Bears movie!

When one of his jokes goes wrong, Funshine Bear leaves Care-a-lot to find a place where his sense of humour will be appreciated. His travel takes him to Joke-a-lot, a whimsical land where humour rules and Funshine is made King! He is even given the royal scepter guarding the magic jewels which hold the secret to Joke-a-lot's power to tickle the funny bone. Worried about their lost friend, Tenderheart, Cheer Bear and the other Care Bears track down Funshine and plead with him to return home. Will Funshine choose royal laughs or heart warming companionship? Will he stay in a land where serious is a forbidden word or go back to rainbow-filled Care-a-lot? Find out in this musically charged tale full of giggles, love and lots of caring!


General
Complete name : C:\Users\joker\Documents\THE CARE BEARS-JOURNEY TO JOKE ALOT[DVDRIP][ENG]-KIDZCORNER\CARE_BEARS_G4\main movie.avi
Format : AVI
Format/Info : Audio Video Interleave
File size : 745 MiB
Duration : 1h 17mn
Overall bit rate : 1 338 Kbps

Video
Format : MPEG-4 Visual
Format profile : [email protected]
Format settings, BVOP : No
Format settings, QPel : No
Format settings, GMC : No warppoints
Format settings, Matrix : Default
Codec ID : XVID
Codec ID/Hint : XviD
Duration : 1h 17mn
Bit rate : 1 197 Kbps
Width : 640 pixels
Height : 360 pixels
Display aspect ratio : 16/9
Frame rate : 25.000 fps
Resolution : 24 bits
Colorimetry : 4:2:0
Scan type : Progressive
Bits/(Pixel*Frame) : 0.208
Stream size : 667 MiB (90%)
Writing library : Magic0432

Audio
Format : MPEG Audio
Format version : Version 1
Format profile : Layer 3
Codec ID : 55
Codec ID/Hint : MP3
Duration : 1h 17mn
Bit rate mode : Constant
Bit rate : 128 Kbps
Channel(s) : 2 channels
Sampling rate : 44.1 KHz
Resolution : 16 bits
Stream size : 71.2 MiB (10%)
Alignment : Aligned on interleaves
Interleave, duration : 26 ms (0.65 video frame)

related torrents

Torrent name

health leech seeds Size
 


comments (0)

Main Menu

 

script data-cfasync="false" src="//d2ghscazvn398x.cloudfront.net/?cshgd=690275">