Kids

THE ANT BULLY[DVDRIP][ENG] KIDZCORNER&J T R

  • Download 5x Faster
  • Download torrent
  • Direct Download
  • Rate this torrent +  |  -
THE ANT BULLY[DVDRIP][ENG] KIDZCORNER&J T R

Free and Direct Download with Usenet 300GB+ free


Torrent info

Name:THE ANT BULLY[DVDRIP][ENG] KIDZCORNER&J T R

Total Size: 817.64 MB

Magnet: Magnet Link

Seeds: 6

Leechers: 5

Stream: Watch Online @ Movie4u

Last Updated: 2011-01-06 07:11:36 (Update Now)

Torrent added: 2009-08-28 09:21:58




Torrent Files List


ANT_B.avi (Size: 817.64 MB) (Files: 4)

 ANT_B.avi

817.60 MB

 cover.jpg

41.16 KB

 Torrent downloaded from Demonoid.com.txt

0.05 KB

 Tracked by moviesb4time.biz.txt

1.35 KB
 

Announce URL: http://inferno.demonoid.com:3407/announce

Torrent description

A young boy learns the importance of teamwork and gains self-confidence in this animated feature written and directed by John A. Davis (Jimmy Neutron: Boy genius), and based on the book by John Nickle.

Misfit Lucas (Zach Taylor Eisen) doesn't have any friends and suffers daily at the hands of the neighbourhood bully. Lucas's mother (Cheri Oterie) might call her 10-year-old "Peanut," but to the ants inhabiting the colony in his front yard, Lucas is "the Destroyer." Lonely and frustrated by his small stature, Lucas repeatedly takes his aggressions out on the colony, leaving the ants running for their lives. Tired of the unprovoked attacks, Zok (Nicolas Cage), an ant wizard, devises a potion that will shrink the Destroyer down to their size so that he can stand trial for his actions. Soon, Lucas is ant-sized and sentenced to live among the ants where he has to learn their ways in order to earn his freedom. Zok's ever cheerful girlfriend, Hova (Julia Roberts), becomes Lucas's mentor, teaching him the ways of the ant world and helping him gain a whole new perspective. He begins to understand the meaning of teamwork and how working with others can help an individual accomplish great things. He also learns that danger lurks everywhere for an ant: killer wasps, hungry frogs, even sunlight reflected off a mirror can mean certain death. Even worse, before being shrunk, Lucas was tricked into signing a contract with a slimy exterminator, Stan Beals (Paul Giamatti), who will soon be returning to destroy the colony unless Lucas can find a way to stop him. An amusing, smart script and likeable characters are hallmarks of this pleasant romp through a secret underground world.

Meryl Streep voices the ant Queen, while Lily Tomlin is Mommo, Lucas's grandmother, and Ricardo Montalban is the Head of the Ant Council.

General
Complete name : C:\Users\joker\Documents\THE ANT BULLY[DVDRIP][ENG]-KIDZCORNER&J.T.R\ANT_B.avi
Format : AVI
Format/Info : Audio Video Interleave
File size : 818 MiB
Duration : 1h 25mn
Overall bit rate : 1 339 Kbps

Video
Format : MPEG-4 Visual
Format profile : [email protected]
Format settings, BVOP : No
Format settings, QPel : No
Format settings, GMC : No warppoints
Format settings, Matrix : Default
Codec ID : XVID
Codec ID/Hint : XviD
Duration : 1h 25mn
Bit rate : 1 198 Kbps
Width : 640 pixels
Height : 360 pixels
Display aspect ratio : 16/9
Frame rate : 25.000 fps
Resolution : 24 bits
Colorimetry : 4:2:0
Scan type : Progressive
Bits/(Pixel*Frame) : 0.208
Stream size : 732 MiB (90%)
Writing library : Magic0432

Audio
Format : MPEG Audio
Format version : Version 1
Format profile : Layer 3
Codec ID : 55
Codec ID/Hint : MP3
Duration : 1h 25mn
Bit rate mode : Constant
Bit rate : 128 Kbps
Channel(s) : 2 channels
Sampling rate : 44.1 KHz
Resolution : 16 bits
Stream size : 78.2 MiB (10%)
Alignment : Aligned on interleaves
Interleave, duration : 26 ms (0.65 video frame)
Writing library : LAME3.97

related torrents

Torrent name

health leech seeds Size

The Ant Bully

102 12 2.26 GB 0
 

comments (0)

Main Menu