Kids

STUART LITTLE 2 [DVDRIP][ENG] KIDZCORNER&J T R

  • Download 5x Faster
  • Download torrent
  • Direct Download
  • Rate this torrent +  |  -
STUART LITTLE 2 [DVDRIP][ENG] KIDZCORNER&J T R

Anonymous and Free Direct Download 300GB+


Torrent info

Name:STUART LITTLE 2 [DVDRIP][ENG] KIDZCORNER&J T R

Total Size: 699.89 MB

Magnet: Magnet Link

Seeds: 0

Leechers: 0

Stream: Watch Online @ Movie4u

Last Updated: 2016-07-30 13:50:33 (Update Now)

Torrent added: 2009-08-28 09:18:35



VPN For Torrents

Torrent Files List


662657_DV_L_B.JPG (Size: 699.89 MB) (Files: 5)

 662657_DV_L_B.JPG

52.52 KB

 662657_DV_L_F.JPG

45.77 KB

 SL2.avi

699.80 MB

 Torrent downloaded from Demonoid.com-2.txt

0.05 KB

 Tracked by moviesb4time.biz.txt

1.35 KB
 

tracker

leech seeds
 

Torrent description

Stuart Little is back in an all new heart-warming comic tale full of action packed adventure. Featuring all your favourite characters from the first movie along with some new ones - plus even more incredible visual effects, Stuart Little 2 goes where no mouse has gone before!

General
Complete name : C:\Users\joker\Documents\STUART LITTLE 2 [DVDRIP][ENG]-KIDZCORNER&J.T.R\SL2.avi
Format : AVI
Format/Info : Audio Video Interleave
File size : 700 MiB
Duration : 1h 14mn
Overall bit rate : 1 312 Kbps
Writing application : FairUse Wizard - http://fairusewizard.com
Writing library : The best and REALLY easy backup tool

Video
Format : MPEG-4 Visual
Format profile : Streaming [email protected]
Format settings, BVOP : Yes
Format settings, QPel : No
Format settings, GMC : No warppoints
Format settings, Matrix : Default
Muxing mode : Packed bitstream
Codec ID : XVID
Codec ID/Hint : XviD
Duration : 1h 14mn
Bit rate : 1 175 Kbps
Width : 688 pixels
Height : 368 pixels
Display aspect ratio : 1.870
Frame rate : 25.000 fps
Resolution : 24 bits
Colorimetry : 4:2:0
Scan type : Progressive
Bits/(Pixel*Frame) : 0.186
Stream size : 626 MiB (90%)
Writing library : XviD 1.2.0.dev47 (UTC 2006-11-01)

Audio
Format : MPEG Audio
Format version : Version 1
Format profile : Layer 3
Codec ID : 55
Codec ID/Hint : MP3
Duration : 1h 14mn
Bit rate mode : Constant
Bit rate : 128 Kbps
Minimum bit rate : 128 Kbps
Channel(s) : 2 channels
Sampling rate : 48.0 KHz
Resolution : 16 bits
Stream size : 68.3 MiB (10%)
Alignment : Aligned on interleaves
Interleave, duration : 40 ms (1.00 video frame)
Interleave, preload duration : 504 ms
Writing library : LAME3.97
Encoding settings : CBR

related torrents

Torrent name

health leech seeds Size
 


comments (0)

Main Menu