Kids

Strawberry Shortcake Seaberry Bech Party [Shadow] [H33t] [DivX] [Avi]

  • Download 5x Faster
  • Download torrent
  • Direct Download
  • Rate this torrent +  |  -
Strawberry Shortcake Seaberry Bech Party [Shadow] [H33t] [DivX] [Avi]

Free and Direct Download with Usenet.nl 300GB+ free


Torrent info

Name:Strawberry Shortcake Seaberry Bech Party [Shadow] [H33t] [DivX] [Avi]

Total Size: 590.59 MB

Magnet: Magnet Link

Seeds: 20

Leechers: 12

Stream: Watch Online @ Movie4u

Last Updated: 0000-00-00 00:00:00 (Update Now)

Torrent added: 2009-08-28 09:18:21





Torrent Files List


Strawberry Shortcake Seaberry Beach Party [Shadow] [H33t] [DivX] [Avi].avi (Size: 590.59 MB) (Files: 5)

 Strawberry Shortcake Seaberry Beach Party [Shadow] [H33t] [DivX] [Avi].avi

590.51 MB

 Strawberry Shortcake Seaberry Beach Party [Shadow] [H33t] [DivX] [Avi].txt

5.59 KB

 strawberry1.jpg

64.18 KB

 strawberry2.png

19.62 KB

 tracked_by_h33t_com.txt

0.02 KB
 

Announce URL: http://www.h33t.com:3310/announce

Torrent description



----------------------------------------------------------------------------------------------------------------
Description/TagLines
----------------------------------------------------------------------------------------------------------------

In Seaberry Beach Party, Gingersnap, Angel Cake, and Orange Blossom listen to the roar of the ocean in SSC's seashells. SSC looks through her "remembering book" and shares two sea tales. In the first story, "Coco Calypso and the Mystery of the Seaberry Shore", the seaberries are disappearing. Coco, who lives on the beach, solves the mystery and meets a new friend, Seaberry Delight, who lives in the lagoon underwater. Other characters featured in this episode are Papaya Parrot, Rainbow Sherbert, and Blueberry Muffin.
What is more precious than gold? Find out in the second story. Rainbow and Blueberry haggle over sand dollars they find on the beach. To stop the friends from fighting, Seaberry Delight tells them "The Legend of the Lost Treasure." SSC and her friends are mermaids who face a greedy Sea Serpent hoarding the precious "solid gold" sand dollars.

"Taken from a Customer review at Amazon"

----------------------------------------------------------------------------------------------------------------
Cast
----------------------------------------------------------------------------------------------------------------



Sarah Heinke ... Strawberry Shortcake (voice)
Rest of cast listed alphabetically:
DeJare Barfield ... Orange Blossom (voice)
Pam Carter ... Sea Beast (voice)
Susie Collins ... Papaya Parrot (voice)
Melissa Deni ... Coco Calypso (voice)
Laura Grimm ... Rainbow Sherbet (voice)
Nils Haaland ... Pupcake (voice)
Bianca Heyward ... Blueberry Muffin (voice)
Anna Jordan ... Custard (voice)
Abigail Leib ... Seaberry Delight (voice)
Samantha Triba ... Ginger Snap (voice)
Rachel Ware ... Angel Cake (voice)



----------------------------------------------------------------------------------------------------------------
File Info
----------------------------------------------------------------------------------------------------------------

----------------------------------------------------------------------------------------------------------------
General
----------------------------------------------------------------------------------------------------------------

Complete name : Strawberry Shortcake Seaberry Beach Party [Shadow] [H33t] [DivX] [Avi].avi
Format : AVI
Format/Info : Audio Video Interleave
File size : 591 MiB
Duration : 44mn 8s
Overall bit rate : 1 870 Kbps
Writing application : Lavf51.12.1


----------------------------------------------------------------------------------------------------------------
Video
----------------------------------------------------------------------------------------------------------------

Format : MPEG-4 Visual
Format profile : [email protected]
Format settings, BVOP : No
Format settings, QPel : No
Format settings, GMC : No warppoints
Format settings, Matrix : Default
Codec ID : DX50
Codec ID/Hint : DivX 5
Duration : 44mn 8s
Bit rate : 1 729 Kbps
Width : 720 pixels
Height : 480 pixels
Display aspect ratio : 1.500
Frame rate : 29.970 fps
Standard : NTSC
Resolution : 24 bits
Colorimetry : 4:2:0
Scan type : Progressive
Bits/(Pixel*Frame) : 0.167
Stream size : 546 MiB (92%)
Writing library : Lavc51.40.4


----------------------------------------------------------------------------------------------------------------
Audio
----------------------------------------------------------------------------------------------------------------

Format : MPEG Audio
Format version : Version 1
Format profile : Layer 3
Codec ID : 55
Codec ID/Hint : MP3
Duration : 44mn 8s
Bit rate mode : Constant
Bit rate : 128 Kbps
Channel(s) : 2 channels
Sampling rate : 48.0 KHz
Resolution : 16 bits
Stream size : 40.4 MiB (7%)
Alignment : Aligned on interleaves
Interleave, duration : 24 ms (0.72 video frame)
Interleave, preload duration : 24 ms
Writing library : LAME3.97

----------------------------------------------------------------------------------------------------------------
Files Included
----------------------------------------------------------------------------------------------------------------

Strawberry Shortcake Seaberry Beach Party [Shadow] [H33t] [DivX] [Avi].avi
strawberry1.jpg
strawberry2.png
tracked_by_h33t_com.txt
Strawberry Shortcake Seaberry Beach Party [Shadow] [H33t] [DivX] [Avi].txt

----------------------------------------------------------------------------------------------------------------
Personal Notes
----------------------------------------------------------------------------------------------------------------

Kids will love this one :)

related torrents

Torrent name

health leech seeds Size
 

comments (0)

Main Menu