Kids

SCOOBY DOO&THE GOBLIN KING 2008[FEATURE LENGTH MOVIE][DVDRIP][ENG] KIDZCORNER&J T R

  • Download 5x Faster
  • Download torrent
  • Direct Download
  • Rate this torrent +  |  -

Torrent info

Name:SCOOBY DOO&THE GOBLIN KING 2008[FEATURE LENGTH MOVIE][DVDRIP][ENG] KIDZCORNER&J T R

Total Size: 681.01 MB

Magnet: Magnet Link

Seeds: 5

Leechers: 3

Stream: Watch Online @ Movie4u

Last Updated: 2010-11-13 19:41:12 (Update Now)

Torrent added: 2009-08-28 09:11:59




Torrent Files List


SCOOBY_DOO_AND_THE_GOBLIN_KING (Size: 681.01 MB) (Files: 4)

 SCOOBY_DOO_AND_THE_GOBLIN_KING

  TITLE01.avi

680.96 MB

 5375254x.jpg

47.32 KB

 Torrent downloaded from Demonoid.com-1.txt

0.05 KB

 Tracked by moviesb4time.biz.txt

1.35 KB
 

Announce URL: http://inferno.demonoid.com:3402/announce

Torrent description

To Face A Goblin King, Courage Is Crucial. So For Scooby-Doo And Shaggy The Odds Are Against Them!
What a predicament! The Amazing Krudsky, a failed carnival magician, steals the light magic from Princess Fairy Willow, and Scooby-Doo and Shaggy must stop him or everyone will be turned into horrible Halloween monsters! Our heroes board the Grim Reaper Railroad into the fantastic world of Halloween Land to retrieve the powerful Goblin King before midnight. Along the way, they encounter the infamous Headless Horseman, the helpful Jack O'Lantern and a frisky broomstick that takes them on the ride of their afterlives.

please visit the kool kidzcorner blog
http://bestkidztorrents.blogspot.com/

General
Complete name : C:\Users\joker\Desktop\SCOOBY DOO&THE GOBLIN KING 2008[FEATURE LENGTH MOVIE][DVDRIP][ENG]-KIDZCORNER&J.T.R\SCOOBY_DOO_AND_THE_GOBLIN_KING\TITLE01.avi
Format : AVI
Format/Info : Audio Video Interleave
File size : 681 MiB
Duration : 1h 11mn
Overall bit rate : 1 337 Kbps

Video
Format : MPEG-4 Visual
Format profile : [email protected]
Format settings, BVOP : No
Format settings, QPel : No
Format settings, GMC : No warppoints
Format settings, Matrix : Default
Codec ID : XVID
Codec ID/Hint : XviD
Duration : 1h 11mn
Bit rate : 1 197 Kbps
Width : 640 pixels
Height : 480 pixels
Display aspect ratio : 4/3
Frame rate : 25.000 fps
Resolution : 24 bits
Colorimetry : 4:2:0
Scan type : Progressive
Bits/(Pixel*Frame) : 0.156
Stream size : 610 MiB (90%)
Writing library : Magic0432

Audio
Format : MPEG Audio
Format version : Version 1
Format profile : Layer 3
Codec ID : 55
Codec ID/Hint : MP3
Duration : 1h 11mn
Bit rate mode : Constant
Bit rate : 128 Kbps
Channel(s) : 2 channels
Sampling rate : 44.1 KHz
Resolution : 16 bits
Stream size : 65.2 MiB (10%)
Alignment : Aligned on interleaves
Interleave, duration : 26 ms (0.65 video frame)
Writing library : LAME3.97

related torrents

Torrent name

health leech seeds Size
 

comments (0)

Main Menu