Jazz

Gary Thomas Till We Have Faces (1992) FLAC

  • Download 5x Faster
  • Download torrent
  • Direct Download
  • Rate this torrent +  |  -
Gary Thomas Till We Have Faces (1992) FLAC

Anonymous and Free Direct Download


Torrent info

Name:Gary Thomas Till We Have Faces (1992) FLAC

Total Size: 461.74 MB

Magnet: Magnet Link

Seeds: 1

Leechers: 20

Stream: Watch Online @ Movie4u

Last Updated: 2011-01-07 08:16:01 (Update Now)

Torrent added: 2008-07-01 12:36:45



VPN For Torrents

Torrent Files List


A Ripping guide for EAC.txt (Size: 461.74 MB) (Files: 15)

 A Ripping guide for EAC.txt

8.16 KB

 CD Image (flac).cue

1.10 KB

 CD Image (wav).cue

1.10 KB

 CD Image.flac

351.46 MB

 EAC.log

2.61 KB

 info.txt

0.95 KB

 Scans

  Booklet 001.png

15.95 MB

  Booklet 002.png

15.95 MB

  Booklet 003.png

15.79 MB

  Booklet 004.png

12.08 MB

  Booklet 005.png

13.80 MB

  Booklet 006.png

13.88 MB

  Disc.png

10.32 MB

  Tray.png

12.49 MB

 Torrent downloaded from Demonoid.com.txt

0.05 KB
 

Announce URL: http://inferno.demonoid.com:3390/announce

Torrent description

Gary Thomas - Till We Have Faces

On Gary Thomas' fourth album as a leader on JMT, he blows the dust off melodies that have almost been played to death, opening up new facets, tempos and shapes!

1. Angel Eyes
2. The Best Thing For You
3. Lush Life
4. Bye Bye Baby
5. Lament
6. Peace
7. It's You Or No One
8. You Don't Know What Love Is

Gary Thomas' angular lines and buzzsaw tone on tenor take a little getting used to, but there's no denying the power of this music. The band is stellar: Pat Metheny on guitar, Tim Murphy on piano, Ed Howard or Anthony Cox on bass, Terri Lyne Carrington on drums and Steve Moss on percussion. Carrington's blistering performance on "Angel Eyes" by itself is worth the price of the disk, but every track is a gem. Kudos to recording engineer Carlos Albrecht and mix engineer Thomas Schmid for achieving such a clear, balanced recording, and for making the bass--frequently a casualty on jazz recordings--clearly audible.

Exact Audio Copy V0.99 prebeta 4 from 23. January 2008

EAC extraction logfile from 30. June 2008, 20:25

Gary Thomas / Till We Have Faces

Used drive : HL-DT-STDVD-ROM GDR8163B Adapter: 1 ID: 1

Read mode : Secure
Utilize accurate stream : Yes
Defeat audio cache : Yes
Make use of C2 pointers : No

Read offset correction : 102
Overread into Lead-In and Lead-Out : No
Fill up missing offset samples with silence : Yes
Delete leading and trailing silent blocks : No
Null samples used in CRC calculations : Yes
Used interface : Installed external ASPI interface

Used output format : Internal WAV Routines
Sample format : 44.100 Hz; 16 Bit; Stereo


TOC of the extracted CD

Track | Start | Length | Start sector | End sector
---------------------------------------------------------
1 | 0:00.33 | 8:13.57 | 33 | 37064
2 | 8:14.15 | 7:59.05 | 37065 | 72994
3 | 16:13.20 | 5:29.18 | 72995 | 97687
4 | 21:42.38 | 6:41.32 | 97688 | 127794
5 | 28:23.70 | 9:28.40 | 127795 | 170434
6 | 37:52.35 | 7:18.45 | 170435 | 203329
7 | 45:11.05 | 6:36.00 | 203330 | 233029
8 | 51:47.05 | 9:38.05 | 233030 | 276384


Range status and errors

Selected range

Filename D:\Jazz\Gary Thomas - Till We Have Faces (1992) [FLAC]\CD Image.wav

Peak level 100.0 %
Range quality 100.0 %
Test CRC 3F3E2BBF
Copy CRC 3F3E2BBF
Copy OK

No errors occurred


AccurateRip summary

Track 1 cannot be verified as accurate (confidence 2) [033E7974], AccurateRip returned [6901EEEC]
Track 2 cannot be verified as accurate (confidence 2) [D543F45B], AccurateRip returned [08FC53A8]
Track 3 cannot be verified as accurate (confidence 2) [61C6AB7F], AccurateRip returned [6941B954]
Track 4 cannot be verified as accurate (confidence 2) [3C3C9BD3], AccurateRip returned [9985488F]
Track 5 cannot be verified as accurate (confidence 2) [691F4B36], AccurateRip returned [4755476D]
Track 6 cannot be verified as accurate (confidence 2) [A215E9F2], AccurateRip returned [23436C7A]
Track 7 cannot be verified as accurate (confidence 2) [061CE179], AccurateRip returned [775CABCA]
Track 8 cannot be verified as accurate (confidence 2) [6B06C340], AccurateRip returned [CD0D27EA]

No tracks could be verified as accurate
You may have a different pressing from the one(s) in the database

End of status report

related torrents

Torrent name

health leech seeds Size

Red - Untill We Have Faces

3 1 101.63 MB 0
 


comments (0)

Main Menu