Kids

Pinocchio 70th Anniversary Edition BRRip XviD AC3 FLAWL3SS mazysnuthouse org

  • Download 5x Faster
  • Download torrent
  • Direct Download
  • Rate this torrent +  |  -
Pinocchio 70th Anniversary Edition BRRip XviD AC3 FLAWL3SS mazysnuthouse org

Free and Direct Download with Usenet.nl 300GB+ free


Torrent info

Name:Pinocchio 70th Anniversary Edition BRRip XviD AC3 FLAWL3SS mazysnuthouse org

Total Size: 1.38 GB

Magnet: Magnet Link

Seeds: 0

Leechers: 0

Stream: Watch Online @ Movie4u

Last Updated: 2016-01-29 07:48:32 (Update Now)

Torrent added: 2009-08-28 09:02:29





Torrent Files List


Movie (Size: 1.38 GB) (Files: 4)

 Movie

  Pinocchio.70th.Anniversary.Edition.BRRip.XviD.AC3-FLAWL3SS.nfo

5.34 KB

  Pinocchio.70th.FLAWL3SS.avi

1.37 GB

 Sample

  sample.pin.flawl3ss.avi

15.72 MB

 Subtitles

  Pinocchio.70th.English.srt

74.13 KB
 

tracker

leech seeds
 

Torrent description

FLAWL3SS Release



Specs:


Format : AVI
Format/Info : Audio Video Interleave
File size : 1.37 GiB
Duration : 1h 27mn
Overal bit rate : 2231 Kbps
Writing application : VirtualDubMod 1.5.10.2 (build 2542/release)
Writing library
language Eng : VirtualDubMod build 2542/release

Video
Format : MPEG-4 Visual
Format profile : Streaming [email protected]
Format settings, BVOP : Yes
Format settings, QPel : No
Format settings, GMC : 0 warppoint
Format settings, Matrix : Custom
Codec ID : XVID
Codec ID/Hint : XviD
Duration : 1h 27mn
Bit rate : 1773 Kbps
Width : 720 pixels
Height : 528 pixels
Display aspect ratio : 4/3
Frame rate : 23.976 fps
Resolution : 8 bits
Colorimetry : 4:2:0
Scan type : Progressive
Bits/(Pixel*Frame) : 0.195
Stream size : 1.09 GiB
Writing library : XviD0050

Audio
Format : AC-3
Format/Info : Audio Coding 3
Codec ID : 2000
Duration : 1h 27mn
Bit rate mode : CBR
Bit rate : 448 Kbps
Channel(s) : 6 channels
Channel positions : Front: L C R, Rear: L R, LFE
Sampling rate : 48.0 KHz
Stream size : 281 MiB

Subtitles: Yes ( English .srt )

related torrents

Torrent name

health leech seeds Size
 

comments (0)

Main Menu