Kids

OVER THE HEDGE[DVDRIP][ENG] KIDZCORNER

  • Download 5x Faster
  • Download torrent
  • Direct Download
  • Rate this torrent +  |  -
OVER THE HEDGE[DVDRIP][ENG] KIDZCORNER

Anonymous and Free Direct Download 300GB+


Torrent info

Name:OVER THE HEDGE[DVDRIP][ENG] KIDZCORNER

Total Size: 766.13 MB

Magnet: Magnet Link

Seeds: 0

Leechers: 0

Stream: Watch Online @ Movie4u

Last Updated: 0000-00-00 00:00:00 (Update Now)

Torrent added: 2009-08-28 08:59:19



VPN For Torrents

Torrent Files List


MAIN MOVIE OTH.avi (Size: 766.13 MB) (Files: 4)

 MAIN MOVIE OTH.avi

764.38 MB

 Over_The_Hedge_R1_Custom-[cdcovers_cc]-front.jpg

1.74 MB

 Torrent downloaded from Demonoid.com.txt

0.05 KB

 Tracked by moviesb4time.biz.txt

1.35 KB
 

Announce URL:

Torrent description

Traveling raccoon con artist, RJ (Willis), arrives in a woods outside a human city in the Midwest, excited about the wonders that living near humans can bring hungry animals. What he finds, however, is an Amish-like community that is deathly afraid of humans, after their leader, Vern the tortoise (Shandling), has an encounter with human boys that terrifies him. Encouraged by RJ, however, the animals slowly venture over the hedge that separates them from the brand new suburban development that appeared over the winter while they were sleeping, and what RJ shows them is a whole new world where humans leave tin cans full of fish and other food in big canisters, ripe for the taking. As they get closer and closer to humans, however, their comfortable lives in the woods appears to be threatened...

General
Complete name : C:\Users\joker\Documents\OVER THE HEDGE[DVDRIP][ENG]-KIDZCORNER\MAIN MOVIE OTH.avi
Format : AVI
Format/Info : Audio Video Interleave
File size : 764 MiB
Duration : 1h 19mn
Overall bit rate : 1 338 Kbps

Video
Format : MPEG-4 Visual
Format profile : [email protected]
Format settings, BVOP : No
Format settings, QPel : No
Format settings, GMC : No warppoints
Format settings, Matrix : Default
Codec ID : XVID
Codec ID/Hint : XviD
Duration : 1h 19mn
Bit rate : 1 198 Kbps
Width : 640 pixels
Height : 360 pixels
Display aspect ratio : 16/9
Frame rate : 25.000 fps
Resolution : 24 bits
Colorimetry : 4:2:0
Scan type : Progressive
Bits/(Pixel*Frame) : 0.208
Stream size : 684 MiB (90%)
Writing library : Magic0432

Audio
Format : MPEG Audio
Format version : Version 1
Format profile : Layer 3
Codec ID : 55
Codec ID/Hint : MP3
Duration : 1h 19mn
Bit rate mode : Constant
Bit rate : 128 Kbps
Channel(s) : 2 channels
Sampling rate : 44.1 KHz
Resolution : 16 bits
Stream size : 73.1 MiB (10%)
Alignment : Aligned on interleaves
Interleave, duration : 26 ms (0.65 video frame)
Writing library : LAME3.97

related torrents

Torrent name

health leech seeds Size
 


comments (0)

Main Menu