Kids

OPEN SEASON 2006[DVDRIP][ENG] KIDZCORNER&J T R

  • Download 5x Faster
  • Download torrent
  • Direct Download
  • Rate this torrent +  |  -
OPEN SEASON 2006[DVDRIP][ENG] KIDZCORNER&J T R

Free and Direct Download with Usenet 300GB+ free


Torrent info

Name:OPEN SEASON 2006[DVDRIP][ENG] KIDZCORNER&J T R

Total Size: 698.91 MB

Magnet: Magnet Link

Seeds: 28

Leechers: 4

Stream: Watch Online @ Movie4u

Last Updated: 0000-00-00 00:00:00 (Update Now)

Torrent added: 2009-08-28 08:58:59




Torrent Files List


760348_DV_L_B.JPG (Size: 698.91 MB) (Files: 5)

 760348_DV_L_B.JPG

54.32 KB

 760348_DV_L_F.JPG

49.53 KB

 OPEN S.avi

698.81 MB

 Torrent downloaded from Demonoid.com.txt

0.05 KB

 Tracked by moviesb4time.biz.txt

1.35 KB
 

Announce URL: http://inferno.demonoid.com:3405/announce

Torrent description

Meet Boog, a domesticated grizzly bear with no survival skills, who is about to have his perfect world turned upside down when he meets Elliott, a scrawny, fast-talking mule deer. Events quickly spiral out of control and the troublesome pair find themselves lost in the wild three days before open season. With the hunters in hot pursuit, they join forces to unite the woodland creatures and put the forest back into nature's control!
Take a walk on the wild side with this fantastic animated action-adventure comedy for the whole family.

General
Complete name : C:\Users\joker\Documents\OPEN SEASON-2006[DVDRIP][ENG]-KIDZCORNER&J.T.R\OPEN S.avi
Format : AVI
Format/Info : Audio Video Interleave
File size : 699 MiB
Duration : 1h 22mn
Overall bit rate : 1 181 Kbps
Writing application : FairUse Wizard - http://fairusewizard.com
Writing library : The best and REALLY easy backup tool

Video
Format : MPEG-4 Visual
Format profile : [email protected]
Format settings, BVOP : No
Format settings, QPel : No
Format settings, GMC : No warppoints
Format settings, Matrix : Default
Codec ID : XVID
Codec ID/Hint : XviD
Duration : 1h 22mn
Bit rate : 1 043 Kbps
Width : 688 pixels
Height : 368 pixels
Display aspect ratio : 1.870
Frame rate : 25.000 fps
Resolution : 24 bits
Colorimetry : 4:2:0
Scan type : Progressive
Bits/(Pixel*Frame) : 0.165
Stream size : 617 MiB (88%)
Writing library : XviD 1.2.0.dev47 (UTC 2006-11-01)

Audio
Format : MPEG Audio
Format version : Version 1
Format profile : Layer 3
Codec ID : 55
Codec ID/Hint : MP3
Duration : 1h 22mn
Bit rate mode : Constant
Bit rate : 128 Kbps
Minimum bit rate : 128 Kbps
Channel(s) : 2 channels
Sampling rate : 48.0 KHz
Resolution : 16 bits
Stream size : 75.7 MiB (11%)
Alignment : Aligned on interleaves
Interleave, duration : 40 ms (1.00 video frame)
Interleave, preload duration : 504 ms
Writing library : LAME3.97
Encoding settings : CBR

related torrents

Torrent name

health leech seeds Size
 

comments (0)

Main Menu