Kids

LOOK WHOS TALKING NOW[DVDRIP][ENG] KIDZCORNER&J T R

  • Download 5x Faster
  • Download torrent
  • Direct Download
  • Rate this torrent +  |  -
LOOK WHOS TALKING NOW[DVDRIP][ENG] KIDZCORNER&J T R

Free and Direct Download with Usenet.nl 300GB+ free


Torrent info

Name:LOOK WHOS TALKING NOW[DVDRIP][ENG] KIDZCORNER&J T R

Total Size: 551.52 MB

Magnet: Magnet Link

Seeds: 8

Leechers: 8

Stream: Watch Online @ Movie4u

Last Updated: 0000-00-00 00:00:00 (Update Now)

Torrent added: 2009-08-28 08:45:20





Torrent Files List


576693_DV_L_B.JPG (Size: 551.52 MB) (Files: 5)

 576693_DV_L_B.JPG

37.63 KB

 576693_DV_L_F.JPG

29.64 KB

 LWTN.avi

551.46 MB

 Torrent downloaded from Demonoid.com-2.txt

0.05 KB

 Tracked by moviesb4time.biz.txt

1.35 KB
 

Announce URL: http://inferno.demonoid.com:3406/announce

Torrent description

Now the kids finally know how to talk, this family is going to the dogs! Thanks to the unique voice talents of Danny De Vito and Diane Keaton as two canine comedians determined to turn the household upside down, LOOK WHO'S TALKING NOW is as fresh and funny as the original.
John Travolta and Kirsty Alley return to the fun-loving parents whose marriage is put to the test when she loses a job and he finds one... with a lady boss who shows an over active interest in merging. Loaded with one-liners and enough humour for kids and adults alike, LOOK WHO'S TALKING NOW proves that when it comes to comedy, it's a dog's life!

General
Complete name : C:\Users\joker\Documents\LOOK WHOS TALKING NOW[DVDRIP][ENG]-KIDZCORNER&J.T.R\LWTN.avi
Format : AVI
Format/Info : Audio Video Interleave
File size : 551 MiB
Duration : 1h 31mn
Overall bit rate : 846 Kbps
Writing application : FairUse Wizard - http://fairusewizard.com
Writing library : The best and REALLY easy backup tool

Video
Format : MPEG-4 Visual
Format profile : Streaming [email protected]
Format settings, BVOP : Yes
Format settings, QPel : No
Format settings, GMC : No warppoints
Format settings, Matrix : Default
Muxing mode : Packed bitstream
Codec ID : XVID
Codec ID/Hint : XviD
Duration : 1h 31mn
Bit rate : 708 Kbps
Width : 672 pixels
Height : 368 pixels
Display aspect ratio : 16/9
Frame rate : 25.000 fps
Resolution : 24 bits
Colorimetry : 4:2:0
Scan type : Progressive
Bits/(Pixel*Frame) : 0.114
Stream size : 462 MiB (84%)
Writing library : XviD 1.1.2 (UTC 2006-11-01)

Audio
Format : MPEG Audio
Format version : Version 1
Format profile : Layer 3
Codec ID : 55
Codec ID/Hint : MP3
Duration : 1h 31mn
Bit rate mode : Constant
Bit rate : 128 Kbps
Minimum bit rate : 128 Kbps
Channel(s) : 2 channels
Sampling rate : 48.0 KHz
Resolution : 16 bits
Stream size : 83.5 MiB (15%)
Alignment : Aligned on interleaves
Interleave, duration : 40 ms (1.00 video frame)
Interleave, preload duration : 504 ms
Writing library : LAME3.97
Encoding settings : CBR

related torrents

Torrent name

health leech seeds Size
 

comments (0)

Main Menu