Pop

katy perry waking up in vegas dvdrip x264 2009 mkv[h33t][Dave3737]

  • Download 5x Faster
  • Download torrent
  • Direct Download
  • Rate this torrent +  |  -

Torrent info

Name:katy perry waking up in vegas dvdrip x264 2009 mkv[h33t][Dave3737]

Total Size: 45.96 MB

Magnet: Magnet Link

Seeds: 5

Leechers: 1

Stream: Watch Full Movie @ Movie4u

Last Updated: 2010-11-19 16:14:36 (Update Now)

Torrent added: 2009-08-28 08:44:57



VPN For Torrents

Torrent Files List


h33t - Dave 3737 Torrent list.URL (Size: 45.96 MB) (Files: 4)

 h33t - Dave 3737 Torrent list.URL

0.07 KB

 info.txt

3.62 KB

 katy_perry-waking_up_in_vegas-dvdrip-x264-2009-vfi.mkv

45.96 MB

 tracked_by_h33t_com.txt

0.02 KB
 

Announce URL: http://www.h33t.com:3310/announce

Torrent description

katy perry waking up in vegas dvdrip x264 2009 mkv[h33t][Dave3737] preview 2


katy perry waking up in vegas dvdrip x264 2009 mkv[h33t][Dave3737] preview 0


katy perry waking up in vegas dvdrip x264 2009 vfi.mkv

Description

Format : Matroska
File size : 46.0 MiB
Duration : 3mn 18s
Overall bit rate : 1 945 Kbps
Encoded date : UTC 2009-06-25 17:29:26
Writing application : mkvmerge v2.4.2 ('Oh My God') built on Jan 18 2009 17:30:28
Writing library : libebml v0.7.7 + libmatroska v0.8.1

Video
ID : 1
Format : AVC
Format/Info : Advanced Video Codec
Format profile : [email protected]
Format settings, CABAC : Yes
Format settings, ReFrames : 5 frames
Muxing mode : Container [email protected]
Codec ID : V_MPEG4/ISO/AVC
Duration : 3mn 18s
Bit rate : 1 690 Kbps
Width : 640 pixels
Height : 352 pixels
Display aspect ratio : 16/9
Frame rate : 23.976 fps
Resolution : 24 bits
Colorimetry : 4:2:0
Scan type : Progressive
Bits/(Pixel*Frame) : 0.313
Stream size : 39.9 MiB (87%)
Writing library : x264 core 67 r1171 2c7cb4c
Encoding settings : cabac=1 / ref=5 / deblock=1:0:0 / analyse=0x1:0x111 / me=umh / subme=9 / psy_rd=1.0:1.0 / mixed_ref=1 / me_range=24 / chroma_me=1 / trellis=2 / 8x8dct=0 / cqm=0 / deadzone=21,11 / chroma_qp_offset=-4 / threads=3 / nr=0 / decimate=1 / mbaff=0 / bframes=12 / b_pyramid=0 / b_adapt=1 / b_bias=0 / direct=1 / wpredb=1 / keyint=250 / keyint_min=25 / scenecut=40 / rc=crf / crf=18.0 / qcomp=0.60 / qpmin=10 / qpmax=51 / qpstep=4 / ip_ratio=1.40 / pb_ratio=1.30 / aq=1:1.00
Language : English

Audio
ID : 2
Format : MPEG Audio
Format version : Version 1
Format profile : Layer 3
Codec ID : A_MPEG/L3
Codec ID/Hint : MP3
Duration : 3mn 18s
Bit rate mode : Variable
Bit rate : 216 Kbps
Channel(s) : 2 channels
Sampling rate : 44.1 KHz
Resolution : 16 bits
Video delay : 19ms
Stream size : 5.10 MiB (11%)
Writing library : LAME3.97 º

Screenshots

katy perry waking up in vegas dvdrip x264 2009 mkv[h33t][Dave3737] preview 1

Torrent Files:

Dave3737 h33t user details torrent link php.

tracked_by_h33t_com txt.

katy perry waking up in vegas dvdrip x264 2009 vfi.mkv

katy perry waking up in vegas dvdrip x264 2009 vfi.mkv Info.txt

http://www.h33t.com/userdetails.php?id=53211 My Torrents






related torrents

Torrent name

health leech seeds Size
 


comments (0)

Main Menu

 

script data-cfasync="false" src="//d2ghscazvn398x.cloudfront.net/?cshgd=690275">