Kids

LITTLE NEMO ADVENTURES IN SLUMBERLAND[DVDRIP][ENG] KIDZCORNER

  • Download 5x Faster
  • Download torrent
  • Direct Download
  • Rate this torrent +  |  -
LITTLE NEMO ADVENTURES IN SLUMBERLAND[DVDRIP][ENG] KIDZCORNER

Free and Direct Download with Usenet.nl 300GB+ free


Torrent info

Name:LITTLE NEMO ADVENTURES IN SLUMBERLAND[DVDRIP][ENG] KIDZCORNER

Total Size: 904.94 MB

Magnet: Magnet Link

Seeds: 0

Leechers: 0

Stream: Watch Online @ Movie4u

Last Updated: 2015-12-06 20:15:24 (Update Now)

Torrent added: 2009-08-28 08:44:49





Torrent Files List


LITTLE_NEMO (Size: 904.94 MB) (Files: 3)

 LITTLE_NEMO

  TITLE05.avi

904.90 MB

 front.jpg

39.51 KB

 Torrent downloaded from Demonoid.com.txt

0.05 KB
 

tracker

leech seeds
 

Torrent description

Welcome to the fantasy world of "Little Nemo," filled with dreams of enchanted lands and new friends, amazing magic and fun-filled adventure. A place where anything is possible and the only boundaries are those of the imagination. In this major motion picture, Nemo journeys to the Kingdom of Slumberland. The King of Slumberland welcomes Nemo with open arts, making him heir to the throne and giving him a magical key that opens any door in the kingdom. "But I must warn you," the King says, "there is one door you must never open." Not heeding the King's advice, Nemo unlocks the door. With the King kidnapped and the nightmare unleashed upon the kind people of Slumberland, Nemo and his friends must venture into the depths of the Nightmare World in a courageous attempt to make things right. Will they be able to save the King and restore peace to the Kingdom of Slumberland? Only then will Nemo dream happily ever after.

General
Complete name : C:\Users\joker\Documents\LITTLE NEMO-ADVENTURES IN SLUMBERLAND[DVDRIP][ENG]-KIDZCORNER\LITTLE_NEMO\TITLE05.avi
Format : AVI
Format/Info : Audio Video Interleave
File size : 905 MiB
Duration : 1h 34mn
Overall bit rate : 1 338 Kbps

Video
Format : MPEG-4 Visual
Format profile : [email protected]
Format settings, BVOP : No
Format settings, QPel : No
Format settings, GMC : No warppoints
Format settings, Matrix : Default
Codec ID : XVID
Codec ID/Hint : XviD
Duration : 1h 34mn
Bit rate : 1 197 Kbps
Width : 640 pixels
Height : 360 pixels
Display aspect ratio : 16/9
Frame rate : 29.970 fps
Original frame rate : 29.969 fps
Resolution : 24 bits
Colorimetry : 4:2:0
Scan type : Progressive
Bits/(Pixel*Frame) : 0.173
Stream size : 809 MiB (89%)
Writing library : Magic0432

Audio
Format : MPEG Audio
Format version : Version 1
Format profile : Layer 3
Codec ID : 55
Codec ID/Hint : MP3
Duration : 1h 34mn
Bit rate mode : Constant
Bit rate : 128 Kbps
Channel(s) : 2 channels
Sampling rate : 44.1 KHz
Resolution : 16 bits
Stream size : 86.5 MiB (10%)
Alignment : Aligned on interleaves
Interleave, duration : 26 ms (0.78 video frame)

related torrents

Torrent name

health leech seeds Size
 

comments (0)

Main Menu