Kids

Little Einsteins Our Huge Adventure [Shadow] [H33t] [DivX] [Avi]

  • Download 5x Faster
  • Download torrent
  • Direct Download
  • Rate this torrent +  |  -
Little Einsteins Our Huge Adventure [Shadow] [H33t] [DivX] [Avi]

Anonymous and Direct Download 300GB+ free


Torrent info

Name:Little Einsteins Our Huge Adventure [Shadow] [H33t] [DivX] [Avi]

Total Size: 592.22 MB

Magnet: Magnet Link

Seeds: 0

Leechers: 0

Stream: Watch Online @ Movie4u

Last Updated: 2016-02-03 06:21:35 (Update Now)

Torrent added: 2009-08-28 08:44:31




Torrent Files List


Little Einsteins Our Huge Adventure [Shadow] [H33t] [DivX] [Avi].avi (Size: 592.22 MB) (Files: 5)

 Little Einsteins Our Huge Adventure [Shadow] [H33t] [DivX] [Avi].avi

592.17 MB

 Little Einsteins Our Huge Adventure [Shadow] [H33t] [DivX] [Avi].txt

4.44 KB

 little_einsteins1.jpg

24.64 KB

 little_einsteins2.jpg

21.51 KB

 tracked_by_h33t_com.txt

0.02 KB
 

tracker

leech seeds
 

Torrent description

-------------------------------------------------------------------
Description/TagLines
----------------------------------------------------------------------------------------------------------------

This educational program for children invites the viewer to interact with the characters on screen through singing, clapping, and dancing. Animated hosts Leo, June, Quincy, Annie, and Rocket explore a Mexican butterfly garden, Niagara Falls, and an Oklahoman cave. ~ Cammila Albertson, All Movie Guide




----------------------------------------------------------------------------------------------------------------
File Info
----------------------------------------------------------------------------------------------------------------

----------------------------------------------------------------------------------------------------------------
General
----------------------------------------------------------------------------------------------------------------
Complete name : Little Einsteins Our Huge Adventure [Shadow] [H33t] [DivX] [Avi].avi
Format : AVI
Format/Info : Audio Video Interleave
File size : 592 MiB
Duration : 1h 1mn
Overall bit rate : 1 351 Kbps
Writing application : Lavf51.12.1

----------------------------------------------------------------------------------------------------------------
Video
----------------------------------------------------------------------------------------------------------------
Format : MPEG-4 Visual
Format profile : [email protected]
Format settings, BVOP : No
Format settings, QPel : No
Format settings, GMC : No warppoints
Format settings, Matrix : Default
Codec ID : DX50
Codec ID/Hint : DivX 5
Duration : 1h 1mn
Bit rate : 1 209 Kbps
Width : 720 pixels
Height : 480 pixels
Display aspect ratio : 1.500
Frame rate : 29.970 fps
Standard : NTSC
Resolution : 24 bits
Colorimetry : 4:2:0
Scan type : Progressive
Bits/(Pixel*Frame) : 0.117
Stream size : 530 MiB (89%)
Writing library : Lavc51.40.4

----------------------------------------------------------------------------------------------------------------
Audio
----------------------------------------------------------------------------------------------------------------
Format : MPEG Audio
Format version : Version 1
Format profile : Layer 3
Codec ID : 55
Codec ID/Hint : MP3
Duration : 1h 1mn
Bit rate mode : Constant
Bit rate : 128 Kbps
Channel(s) : 2 channels
Sampling rate : 48.0 KHz
Resolution : 16 bits
Stream size : 56.1 MiB (9%)
Alignment : Aligned on interleaves
Interleave, duration : 24 ms (0.72 video frame)
Interleave, preload duration : 24 ms
Writing library : LAME3.97






----------------------------------------------------------------------------------------------------------------
Files Included
----------------------------------------------------------------------------------------------------------------

Little Einsteins Our Huge Adventure [Shadow] [H33t] [DivX] [Avi].avi
little_einsteins1.jpg
little_einsteins2.png
tracked_by_h33t_com.txt
Little Einsteins Our Huge Adventure [Shadow] [H33t] [DivX] [Avi].txt

----------------------------------------------------------------------------------------------------------------
Personal Notes
----------------------------------------------------------------------------------------------------------------

Hope you and your kids enjoy :)

related torrents

Torrent name

health leech seeds Size
 


comments (0)

Main Menu