Drama

Schindler's List [1993] DVDRip N!CK

  • Download 5x Faster
  • Download torrent
  • Direct Download
  • Rate this torrent +  |  -
Schindler's List [1993] DVDRip N!CK

Free and Direct Download with Usenet.nl 300GB+ free


Torrent info

Name:Schindler's List [1993] DVDRip N!CK

Total Size: 1.37 GB

Magnet: Magnet Link

Seeds: 0

Leechers: 0

Stream: Watch Online @ Movie4u

Last Updated: 2012-08-31 20:47:30 (Update Now)

Torrent added: 2009-08-28 08:33:43





Torrent Files List


Schindler's List [1993] DVDRip - N!CK.avi (Size: 1.37 GB) (Files: 4)

 Schindler's List [1993] DVDRip - N!CK.avi

1.36 GB

 Sample.avi

8.94 MB

 Schindler's List [1993] DVDRip - N!CK.srt

133.16 KB

 Release Info.txt

0.99 KB
 

Announce URL:

Torrent description

General
Complete name : C:\Schindler's List [1993] DVDRip - N!CK\Schindler's List [1993] DVDRip - N!CK.avi
Format : AVI
Format/Info : Audio Video Interleave
File size : 1.36 GiB
Duration : 3h 15mn
Overal bit rate : 1000 Kbps

Video
Format : MPEG-4 Visual
Format profile : Streaming [email protected]
Format settings, BVOP : Yes
Format settings, QPel : No
Format settings, GMC : No warppoints
Format settings, Matrix : Default
Codec ID : XVID
Codec ID/Hint : XviD
Duration : 3h 15mn
Bit rate : 875 Kbps
Width : 640 pixels
Height : 342 pixels
Display aspect ratio : 1.871
Frame rate : 23.976 fps
Resolution : 8 bits
Colorimetry : 4:2:0
Scan type : Progressive
Bits/(Pixel*Frame) : 0.167
Stream size : 1.19 GiB
Writing library : XviD 50

Audio
Format : MPEG Audio
Format version : Version 1
Format profile : Layer 3
Codec ID : 55
Codec ID/Hint : MP3
Bit rate mode : Constant
Bit rate : 112 Kbps
Channel(s) : 2 channels
Sampling rate : 48.0 KHz
Resolution : 16 bits
Stream size : 156 MiB

related torrents

Torrent name

health leech seeds Size
 

comments (0)

Main Menu