Drama

Nathalie 2003 France TVRip XViD Wide Screen English Subtitles

  • Download 5x Faster
  • Download torrent
  • Direct Download
  • Rate this torrent +  |  -
Nathalie 2003 France TVRip XViD Wide Screen English Subtitles

Anonymous and free Direct Download 300GB+


Torrent info

Name:Nathalie 2003 France TVRip XViD Wide Screen English Subtitles

Total Size: 808.37 MB

Magnet: Magnet Link

Seeds: 0

Leechers: 0

Stream: Watch Online @ Movie4u

Last Updated: 0000-00-00 00:00:00 (Update Now)

Torrent added: 2009-08-28 08:33:42



VPN For Torrents

Torrent Files List


Nathalie.avi (Size: 808.37 MB) (Files: 6)

 Nathalie.avi

808.03 MB

 poster.png

289.25 KB

 03.jpg

21.60 KB

 04.jpg

16.40 KB

 02.jpg

14.73 KB

 01.jpg

8.11 KB
 

Announce URL:

Torrent description

Nathalie   2003   France   TVRip   XViD Wide Screen   English Subtitles preview 0




Title: Nathalie..
Language: France
Subtitles: English
Video: 720x336 Wide Screen
Audio: MP3 192kbps
Source: TV Digital Recording





Plot:
A Parisian couple, Bernard (Gerard Depardieu) and his wife Catherine (Fanny Ardant) are an upper middle-class middle aged bourgeois man and wife whose sex life has lost its excitement. Fanny plans a surprise birthday party for Bernard for his return from an overseas flight but he misses the flight and Fanny is left to celebrate alone with all the other guests. Fanny intercepts a phone message to Bernard from a woman referring to a sexual liaison but Bernard claims that the relationship means nothing to him. One evening Fanny wanders into a sex club and confronts a beautiful young prostitute Marlene (Emmanuelle Beart) with the proposition that she makes friends with her husband to find out what he likes, ostensibly so she can understand him better. Using the name Nathalie, Marlene goes through with the initially innocent plan, meeting Bernard at his favorite café, pretending to accidentally meet him and asking for a light for her cigarette and getting paid by Catherine. When Marlene reports that Bernard has taken her to a hotel for sex Catherine is upset but asks Marlene to continue reporting to her what the couple does during their trysts. Catherine bonds to Marlene and sees how her life and that of Bernard have developed in ways that can never be changed.




General
Complete name : Nathalie.avi
Format : AVI
Format/Info : Audio Video Interleave
File size : 808 MiB
Duration : 1h 41mn
Overall bit rate : 1 114 Kbps
Writing application : VirtualDubMod 1.5.4.1 (build 2178/release)
Writing library : VirtualDubMod build 2178/release

Video
ID : 0
Format : MPEG-4 Visual
Format profile : [email protected]
Format settings, BVOP : No
Format settings, QPel : No
Format settings, GMC : No warppoints
Format settings, Matrix : Default (H.263)
Codec ID : XVID
Codec ID/Hint : XviD
Duration : 1h 41mn
Bit rate : 915 Kbps
Width : 720 pixels
Height : 336 pixels
Display aspect ratio : 2.2
Frame rate : 25.000 fps
Resolution : 24 bits
Colorimetry : 4:2:0
Scan type : Progressive
Bits/(Pixel*Frame) : 0.151
Stream size : 663 MiB (82%)
Writing library : XviD 1.2.1 (UTC 2008-12-04)

Audio
ID : 1
Format : MPEG Audio
Format version : Version 1
Format profile : Layer 3
Codec ID : 55
Codec ID/Hint : MP3
Duration : 1h 41mn
Bit rate mode : Constant
Bit rate : 192 Kbps
Channel(s) : 2 channels
Sampling rate : 44.1 KHz
Resolution : 16 bits
Stream size : 139 MiB (17%)
Alignment : Split accross interleaves
Interleave, duration : 80 ms (2.00 video frames)
Interleave, preload duration : 500 ms





Screenshots:

Nathalie   2003   France   TVRip   XViD Wide Screen   English Subtitles preview 1

Nathalie   2003   France   TVRip   XViD Wide Screen   English Subtitles preview 2

Nathalie   2003   France   TVRip   XViD Wide Screen   English Subtitles preview 3

related torrents

Torrent name

health leech seeds Size
 


comments (0)

Main Menu