Kids

HOODWINKED[2005] [DVDRIP][ENG] KIDZCORNER

  • Download 5x Faster
  • Download torrent
  • Direct Download
  • Rate this torrent +  |  -
HOODWINKED[2005] [DVDRIP][ENG] KIDZCORNER

Free and Direct Download with Usenet 300GB+ free


Torrent info

Name:HOODWINKED[2005] [DVDRIP][ENG] KIDZCORNER

Total Size: 742.28 MB

Magnet: Magnet Link

Seeds: 25

Leechers: 4

Stream: Watch Online @ Movie4u

Last Updated: 0000-00-00 00:00:00 (Update Now)

Torrent added: 2009-08-28 08:32:41




Torrent Files List


HWID (Size: 742.28 MB) (Files: 4)

 HWID

  TITLE04.avi

742.23 MB

 51jv6GvzIsL._SS500_.jpg

56.65 KB

 Torrent downloaded from Demonoid.com.txt

0.05 KB

 Tracked by moviesb4time.biz.txt

1.35 KB
 

Announce URL: http://inferno.demonoid.com:3407/announce

Torrent description

Trouble in the Hood!

Little Red Riding Hood: a classic story, but there's more to every tale than meets the eye! Before you judge a book by its cover, you've got to flip through the pages. For this story, we begin at the end.

Furry and feathered cops from the animal world investigate a domestic disturbance at Granny's cottage, involving a girl, a wolf, and an axe. The charges are many: breaking and entering, disturbing the peace, intent to eat and wielding an axe without a license. Not to mention, this case might be tied to the elusive and infamous "Goody Bandit" who has been stealing the recipes of goody shops everywhere!

General
Complete name : C:\Users\joker\Documents\HOODWINKED[2005]-[DVDRIP][ENG]-KIDZCORNER\HWID\TITLE04.avi
Format : AVI
Format/Info : Audio Video Interleave
File size : 742 MiB
Duration : 1h 17mn
Overall bit rate : 1 337 Kbps

Video
Format : MPEG-4 Visual
Format profile : [email protected]
Format settings, BVOP : No
Format settings, QPel : No
Format settings, GMC : No warppoints
Format settings, Matrix : Default
Codec ID : XVID
Codec ID/Hint : XviD
Duration : 1h 17mn
Bit rate : 1 197 Kbps
Width : 640 pixels
Height : 360 pixels
Display aspect ratio : 16/9
Frame rate : 25.000 fps
Resolution : 24 bits
Colorimetry : 4:2:0
Scan type : Progressive
Bits/(Pixel*Frame) : 0.208
Stream size : 664 MiB (90%)
Writing library : Magic0432

Audio
Format : MPEG Audio
Format version : Version 1
Format profile : Layer 3
Codec ID : 55
Codec ID/Hint : MP3
Duration : 1h 17mn
Bit rate mode : Constant
Bit rate : 128 Kbps
Channel(s) : 2 channels
Sampling rate : 44.1 KHz
Resolution : 16 bits
Stream size : 71.0 MiB (10%)
Alignment : Aligned on interleaves
Interleave, duration : 26 ms (0.65 video frame)
Writing library : LAME3.97

related torrents

Torrent name

health leech seeds Size
 

comments (0)

Main Menu